Coco (2017)

Posted By: Without
1080p (FullHD) / BDRip IMDb
Coco (2017)

Coco (2017)
BDRip | MKV | 720x302 | AVC@942 kb/s | English AAC@117 kb/s
2 channels | 1 h 48 min | 868 MB
BRRip | AVI | 720x304 | XviD@1224 kb/s | English AC3@384 kb/s
6 channels | 1 h 45 min | 1.19 GB
BDRip 720p | MKV | 1280x536 | AVC@4447 kb/s | English DTS@1509 kb/s
6 channels | 1 h 45 min | 4.37 GB
BDRip 1080p | MKV | 1920x808 | AVC@5938 kb/s | English DTS@1509 kb/s
Subs: English | 6 channels | 1 h 45 min | 5.47 GB
Genre: Animation, Adventure, Comedy

Aspiring musician Miguel, confronted with his family's ancestral ban on music, enters the Land of the Dead to find his great-great-grandfather, a legendary singer.

IMDB - Top Rated Movies #47 | Nominated for 2 Oscars. Another 69 wins & 33 nominations.


General
coco.2017.bdrip.x264-sparks.mkv
Format : Matroska
Format version : Version 4 / Version 2
File size : 868 MiB
Duration : 1 h 45 min
Overall bit rate : 1 156 kb/s
Encoded date : UTC 2018-02-08 23:01:45
Writing application : mkvmerge v20.0.0 ('I Am The Sun') 64-bit
Writing library : libebml v1.3.5 + libmatroska v1.4.8

Video
ID : 1
Format : AVC
Format/Info : Advanced Video Codec
Format profile : High@L3.1
Format settings, CABAC : Yes
Format settings, ReFrames : 10 frames
Codec ID : V_MPEG4/ISO/AVC
Duration : 1 h 45 min
Width : 720 pixels
Height : 302 pixels
Display aspect ratio : 2.40:1
Frame rate mode : Constant
Frame rate : 23.976 (24000/1001) FPS
Color space : YUV
Chroma subsampling : 4:2:0
Bit depth : 8 bits
Scan type : Progressive
Writing library : x264 core 155 r2901 7d0ff22
Encoding settings : cabac=1 / ref=10 / deblock=1:2:1 / analyse=0x3:0x113 / me=hex / subme=8 / psy=1 / psy_rd=0.40:0.00 / mixed_ref=1 / me_range=16 / chroma_me=1 / trellis=2 / 8x8dct=1 / cqm=0 / deadzone=21,11 / fast_pskip=1 / chroma_qp_offset=-2 / threads=9 / lookahead_threads=1 / sliced_threads=0 / nr=0 / decimate=1 / interlaced=0 / bluray_compat=0 / constrained_intra=0 / bframes=5 / b_pyramid=2 / b_adapt=1 / b_bias=0 / direct=3 / weightb=1 / open_gop=0 / weightp=2 / keyint=250 / keyint_min=23 / scenecut=40 / intra_refresh=0 / rc_lookahead=50 / rc=crf / mbtree=1 / crf=19.0 / qcomp=0.60 / qpmin=0 / qpmax=69 / qpstep=4 / vbv_maxrate=17500 / vbv_bufsize=17500 / crf_max=0.0 / nal_hrd=none / filler=0 / ip_ratio=1.40 / aq=1:0.60
Default : Yes
Forced : No
Color range : Limited
Matrix coefficients : BT.709

Audio
ID : 2
Format : AAC
Format/Info : Advanced Audio Codec
Format profile : LC
Codec ID : A_AAC
Duration : 1 h 45 min
Channel(s) : 2 channels
Channel positions : Front: L R
Sampling rate : 48.0 kHz
Frame rate : 46.875 FPS (1024 spf)
Compression mode : Lossy
Delay relative to video : 20 ms
Language : English
Default : Yes
Forced : No

Menu
00:00:00.000 : en:00:00:00.000
00:06:40.191 : en:00:06:40.191
00:08:41.521 : en:00:08:41.521
00:11:13.589 : en:00:11:13.589
00:14:20.318 : en:00:14:20.318
00:17:06.942 : en:00:17:06.942
00:18:20.933 : en:00:18:20.933
00:22:05.991 : en:00:22:05.991
00:24:19.958 : en:00:24:19.958
00:27:44.830 : en:00:27:44.830
00:29:07.913 : en:00:29:07.913
00:32:15.308 : en:00:32:15.308
00:35:18.408 : en:00:35:18.408
00:41:25.524 : en:00:41:25.524
00:47:04.697 : en:00:47:04.697
00:50:54.176 : en:00:50:54.176
00:54:23.885 : en:00:54:23.885
00:56:45.026 : en:00:56:45.026
01:01:42.615 : en:01:01:42.615
01:03:28.137 : en:01:03:28.137
01:08:58.217 : en:01:08:58.217
01:15:17.262 : en:01:15:17.262
01:18:56.773 : en:01:18:56.773
01:21:31.761 : en:01:21:31.761
01:24:31.816 : en:01:24:31.816
01:28:23.464 : en:01:28:23.464
01:33:14.755 : en:01:33:14.755
01:36:10.472 : en:01:36:10.472

General
Coco.2017.BRRip.XviD.AC3-EVO.avi
Format : AVI
Format/Info : Audio Video Interleave
File size : 1.19 GiB
Duration : 1 h 45 min
Overall bit rate : 1 618 kb/s
Writing library : VirtualDub build 32593/release

Video
ID : 0
Format : MPEG-4 Visual
Format profile : Advanced Simple@L5
Format settings, BVOP : 2
Format settings, QPel : No
Format settings, GMC : No warppoints
Format settings, Matrix : Default (H.263)
Muxing mode : Packed bitstream
Codec ID : XVID
Codec ID/Hint : XviD
Duration : 1 h 45 min
Bit rate : 1 224 kb/s
Width : 720 pixels
Height : 304 pixels
Display aspect ratio : 2.35:1
Frame rate : 23.976 (24000/1001) FPS
Color space : YUV
Chroma subsampling : 4:2:0
Bit depth : 8 bits
Scan type : Progressive
Compression mode : Lossy
Bits/(Pixel*Frame) : 0.233
Stream size : 920 MiB (76%)
Writing library : XviD 66

Audio
ID : 1
Format : AC-3
Format/Info : Audio Coding 3
Mode extension : CM (complete main)
Format settings, Endianness : Big
Codec ID : 2000
Duration : 1 h 45 min
Bit rate mode : Constant
Bit rate : 384 kb/s
Channel(s) : 6 channels
Channel positions : Front: L C R, Side: L R, LFE
Sampling rate : 48.0 kHz
Frame rate : 31.250 FPS (1536 spf)
Bit depth : 16 bits
Compression mode : Lossy
Stream size : 288 MiB (24%)
Alignment : Aligned on interleaves
Interleave, duration : 42 ms (1.00 video frame)
Interleave, preload duration : 512 ms

General
coco.2017.720p.bluray.x264-sparks.mkv
Format : Matroska
Format version : Version 4 / Version 2
File size : 4.37 GiB
Duration : 1 h 45 min
Overall bit rate : 5 959 kb/s
Encoded date : UTC 2018-02-08 23:37:57
Writing application : mkvmerge v20.0.0 ('I Am The Sun') 64-bit
Writing library : libebml v1.3.5 + libmatroska v1.4.8

Video
ID : 1
Format : AVC
Format/Info : Advanced Video Codec
Format profile : High@L4.1
Format settings, CABAC : Yes
Format settings, ReFrames : 5 frames
Codec ID : V_MPEG4/ISO/AVC
Duration : 1 h 45 min
Bit rate : 4 447 kb/s
Width : 1 280 pixels
Height : 536 pixels
Display aspect ratio : 2.40:1
Frame rate mode : Constant
Frame rate : 23.976 (24000/1001) FPS
Color space : YUV
Chroma subsampling : 4:2:0
Bit depth : 8 bits
Scan type : Progressive
Bits/(Pixel*Frame) : 0.270
Stream size : 3.18 GiB (73%)
Writing library : x264 core 155 r2901 7d0ff22
Encoding settings : cabac=1 / ref=5 / deblock=1:2:1 / analyse=0x3:0x133 / me=umh / subme=8 / psy=1 / psy_rd=1.00:0.00 / mixed_ref=1 / me_range=16 / chroma_me=1 / trellis=1 / 8x8dct=1 / cqm=0 / deadzone=21,11 / fast_pskip=0 / chroma_qp_offset=-2 / threads=17 / lookahead_threads=2 / sliced_threads=0 / nr=0 / decimate=1 / interlaced=0 / bluray_compat=0 / constrained_intra=0 / bframes=3 / b_pyramid=2 / b_adapt=1 / b_bias=0 / direct=3 / weightb=1 / open_gop=0 / weightp=2 / keyint=250 / keyint_min=23 / scenecut=40 / intra_refresh=0 / rc_lookahead=50 / rc=2pass / mbtree=1 / bitrate=4447 / ratetol=1.0 / qcomp=0.60 / qpmin=0 / qpmax=69 / qpstep=4 / cplxblur=20.0 / qblur=0.5 / vbv_maxrate=62500 / vbv_bufsize=78125 / nal_hrd=none / filler=0 / ip_ratio=1.40 / aq=1:1.00
Default : Yes
Forced : No

Audio
ID : 2
Format : DTS
Format/Info : Digital Theater Systems
Mode : 16
Format settings, Endianness : Big
Codec ID : A_DTS
Duration : 1 h 45 min
Bit rate mode : Constant
Bit rate : 1 509 kb/s
Channel(s) : 6 channels
Channel positions : Front: L C R, Side: L R, LFE
Sampling rate : 48.0 kHz
Frame rate : 93.750 FPS (512 spf)
Bit depth : 24 bits
Compression mode : Lossy
Stream size : 1.11 GiB (25%)
Language : English
Default : Yes
Forced : No

Menu
00:00:00.000 : en:00:00:00.000
00:06:40.191 : en:00:06:40.191
00:08:41.521 : en:00:08:41.521
00:11:13.589 : en:00:11:13.589
00:14:20.318 : en:00:14:20.318
00:17:06.942 : en:00:17:06.942
00:18:20.933 : en:00:18:20.933
00:22:05.991 : en:00:22:05.991
00:24:19.958 : en:00:24:19.958
00:27:44.830 : en:00:27:44.830
00:29:07.913 : en:00:29:07.913
00:32:15.308 : en:00:32:15.308
00:35:18.408 : en:00:35:18.408
00:41:25.524 : en:00:41:25.524
00:47:04.697 : en:00:47:04.697
00:50:54.176 : en:00:50:54.176
00:54:23.885 : en:00:54:23.885
00:56:45.026 : en:00:56:45.026
01:01:42.615 : en:01:01:42.615
01:03:28.137 : en:01:03:28.137
01:08:58.217 : en:01:08:58.217
01:15:17.262 : en:01:15:17.262
01:18:56.773 : en:01:18:56.773
01:21:31.761 : en:01:21:31.761
01:24:31.816 : en:01:24:31.816
01:28:23.464 : en:01:28:23.464
01:33:14.755 : en:01:33:14.755
01:36:10.472 : en:01:36:10.472

General
coco.2017.1080p.bluray.x264-sparks.mkv
Format : Matroska
Format version : Version 4 / Version 2
File size : 5.47 GiB
Duration : 1 h 45 min
Overall bit rate : 7 450 kb/s
Encoded date : UTC 2018-02-09 00:41:25
Writing application : mkvmerge v20.0.0 ('I Am The Sun') 64-bit
Writing library : libebml v1.3.5 + libmatroska v1.4.8

Video
ID : 1
Format : AVC
Format/Info : Advanced Video Codec
Format profile : High@L4.1
Format settings, CABAC : Yes
Format settings, ReFrames : 5 frames
Codec ID : V_MPEG4/ISO/AVC
Duration : 1 h 45 min
Bit rate : 5 938 kb/s
Width : 1 920 pixels
Height : 808 pixels
Display aspect ratio : 2.40:1
Frame rate mode : Constant
Frame rate : 23.976 (24000/1001) FPS
Color space : YUV
Chroma subsampling : 4:2:0
Bit depth : 8 bits
Scan type : Progressive
Bits/(Pixel*Frame) : 0.160
Stream size : 4.25 GiB (78%)
Writing library : x264 core 155 r2901 7d0ff22
Encoding settings : cabac=1 / ref=5 / deblock=1:2:1 / analyse=0x3:0x133 / me=umh / subme=8 / psy=1 / psy_rd=1.00:0.00 / mixed_ref=1 / me_range=16 / chroma_me=1 / trellis=1 / 8x8dct=1 / cqm=0 / deadzone=21,11 / fast_pskip=0 / chroma_qp_offset=-2 / threads=25 / lookahead_threads=4 / sliced_threads=0 / nr=0 / decimate=1 / interlaced=0 / bluray_compat=0 / constrained_intra=0 / bframes=3 / b_pyramid=2 / b_adapt=1 / b_bias=0 / direct=3 / weightb=1 / open_gop=0 / weightp=2 / keyint=250 / keyint_min=23 / scenecut=40 / intra_refresh=0 / rc_lookahead=50 / rc=2pass / mbtree=1 / bitrate=5938 / ratetol=1.0 / qcomp=0.60 / qpmin=0 / qpmax=69 / qpstep=4 / cplxblur=20.0 / qblur=0.5 / vbv_maxrate=62500 / vbv_bufsize=78125 / nal_hrd=none / filler=0 / ip_ratio=1.40 / aq=1:1.00
Default : Yes
Forced : No

Audio
ID : 2
Format : DTS
Format/Info : Digital Theater Systems
Mode : 16
Format settings, Endianness : Big
Codec ID : A_DTS
Duration : 1 h 45 min
Bit rate mode : Constant
Bit rate : 1 509 kb/s
Channel(s) : 6 channels
Channel positions : Front: L C R, Side: L R, LFE
Sampling rate : 48.0 kHz
Frame rate : 93.750 FPS (512 spf)
Bit depth : 24 bits
Compression mode : Lossy
Stream size : 1.11 GiB (20%)
Language : English
Default : Yes
Forced : No

Menu
00:00:00.000 : en:00:00:00.000
00:06:40.191 : en:00:06:40.191
00:08:41.521 : en:00:08:41.521
00:11:13.589 : en:00:11:13.589
00:14:20.318 : en:00:14:20.318
00:17:06.942 : en:00:17:06.942
00:18:20.933 : en:00:18:20.933
00:22:05.991 : en:00:22:05.991
00:24:19.958 : en:00:24:19.958
00:27:44.830 : en:00:27:44.830
00:29:07.913 : en:00:29:07.913
00:32:15.308 : en:00:32:15.308
00:35:18.408 : en:00:35:18.408
00:41:25.524 : en:00:41:25.524
00:47:04.697 : en:00:47:04.697
00:50:54.176 : en:00:50:54.176
00:54:23.885 : en:00:54:23.885
00:56:45.026 : en:00:56:45.026
01:01:42.615 : en:01:01:42.615
01:03:28.137 : en:01:03:28.137
01:08:58.217 : en:01:08:58.217
01:15:17.262 : en:01:15:17.262
01:18:56.773 : en:01:18:56.773
01:21:31.761 : en:01:21:31.761
01:24:31.816 : en:01:24:31.816
01:28:23.464 : en:01:28:23.464
01:33:14.755 : en:01:33:14.755
01:36:10.472 : en:01:36:10.472


BDRip Screenshots

Coco (2017)

Coco (2017)

Coco (2017)


BRRip Screenshots

Coco (2017)

Coco (2017)

Coco (2017)


BDRip 720p Screenshots

Coco (2017)

Coco (2017)

Coco (2017)


BDRip 1080p Screenshots

Coco (2017)

Coco (2017)

Coco (2017)


Come Visit My Blog (•‿•)