Dracula in Love (2018)

Posted By: Tavaz
SD / HDTV IMDb
Dracula in Love (2018)

Dracula in Love (2018)
HDTV | AVI | 720x384 | MP4V-ES @ 2148 kbps | AC-3 @ 192 kbps | 1 h 23 min | 1.36 GiB
WEB-DL | MKV | 1280x720 | English | H264 @ 3110 kbps | E-AC-3 @ 224 kbps | 1 h 23 min | 1.94 GiB
WEB-DL | MKV | 1920x1080 | English | H264 @ 7123 kbps | E-AC-3 @ 224 kbps | 1 h 23 min | 4.27 GiB
Genre: Fantasy, Horror

Leila, a lonely young soul spends the night partying with her friends Nancy, David and Nash in a warehouse. As the boys drink up and smoke pot all social barriers between the sexes crumble. Leila, hit on by both men, hides away from them. Alone she senses there is someone else who wants her and certainly he is not of this world. A 200 year old Dracula escapes from a crate and reveals himself to Leila and tells her that she is his lost love. For him to live again and be with her, she must bring him the blood of her friends to drink and make love to him. Hypnotized by his sexual powers, Leila does as she is told. Leila and a handsome young Dracula get away and live happily ever after.

0f86692c9f1c4735a7525be77d91a6bd.avi (1.4 GB)



General
Complete name : ./0f86692c9f1c4735a7525be77d91a6bd.avi
Format : AVI
Format/Info : Audio Video Interleave
Format profile : OpenDML
Format settings : rec
File size : 1.36 GiB
Duration : 1 h 23 min
Overall bit rate : 2 346 kb/s
Writing application : AVI-Mux GUI 1.17.8.3, Feb 16 201019:42:50

Video
ID : 0
Format : MPEG-4 Visual
Format profile : Advanced Simple@L5
Format settings : BVOP2
Format settings, BVOP : 2
Format settings, QPel : No
Format settings, GMC : No warppoints
Format settings, Matrix : Default (H.263)
Muxing mode : Packed bitstream
Codec ID : XVID
Codec ID/Hint : XviD
Duration : 1 h 23 min
Bit rate : 2 149 kb/s
Width : 720 pixels
Height : 384 pixels
Display aspect ratio : 1.85:1
Frame rate : 23.976 (24000/1001) FPS
Color space : YUV
Chroma subsampling : 4:2:0
Bit depth : 8 bits
Scan type : Progressive
Compression mode : Lossy
Bits/(Pixel*Frame) : 0.324
Stream size : 1.25 GiB (92%)
Writing library : XviD 66

Audio
ID : 1
Format : AC-3
Format/Info : Audio Coding 3
Format settings, Endianness : Big
Codec ID : 2000
Duration : 1 h 23 min
Bit rate mode : Constant
Bit rate : 192 kb/s
Channel(s) : 2 channels
Channel positions : Front: L R
Sampling rate : 48.0 kHz
Frame rate : 31.250 FPS (1536 SPF)
Bit depth : 16 bits
Compression mode : Lossy
Stream size : 114 MiB (8%)
Alignment : Aligned on interleaves
Interleave, duration : 64 ms (1.53 video frames)
Interleave, preload duration : 192 ms
Title : ac3
Service kind : Complete Main





Dracula in Love (2018)


Dracula in Love (2018)


Dracula in Love (2018)


Dracula in Love (2018)


Dracula in Love (2018)