Félicité (2017)

Posted By: RSU75
SD / DVDRip IMDb
Félicité (2017)

Félicité (2017)
DVDRip | MKV | 2hr 04mn | AVC, ~1,6 Mbps | 672x480 | 1.77 GB
Lingala: AC3, 6 ch, 448 Kbps
Subtitles: English
Genre: Drama, Music
IMDB Rating: 6.5/10 (479 votes)


Director: Alain Gomis
Writers: Alain Gomis (screenplay), Olivier Loustau (collaboration)
Stars: Véro Tshanda Beya Mputu, Gaetan Claudia, Papi Mpaka

Félicité sings in a bar in Kinshasa. When her 14-year-old son has a motorcycle accident, she goes on a frantic search through the streets of Kinshasa, a world of music and dreams. And her path crosses that of Tabu.




General
Unique ID : 228639156530898215086012294518688858924 (0xAC024CBFD6C3F6AD885B39F0F91A432C)
Complete name : M:\Felicite.17.Dr\Felicite.17.Dr.mkv
Format : Matroska
Format version : Version 4 / Version 2
File size : 1.77 GiB
Duration : 2 h 4 min
Overall bit rate : 2 044 kb/s
Movie name : Release RSU75
Encoded date : UTC 2018-02-12 10:24:22
Writing application : mkvmerge v6.6.0 ('The Edge Of The In Between') built on Dec 1 2013 17:55:00
Writing library : libebml v1.3.0 + libmatroska v1.4.1

Video
ID : 1
Format : AVC
Format/Info : Advanced Video Codec
Format profile : High@L3
Format settings : CABAC / 4 Ref Frames
Format settings, CABAC : Yes
Format settings, RefFrames : 4 frames
Codec ID : V_MPEG4/ISO/AVC
Duration : 2 h 4 min
Bit rate : 1 600 kb/s
Width : 672 pixels
Height : 480 pixels
Display aspect ratio : 5:3
Original display aspect rat : 5:3
Frame rate mode : Constant
Frame rate : 25.000 FPS
Color space : YUV
Chroma subsampling : 4:2:0
Bit depth : 8 bits
Scan type : Progressive
Bits/(Pixel*Frame) : 0.198
Stream size : 1.35 GiB (76%)
Writing library : x264 core 144 r2533 c8a773e
Encoding settings : cabac=1 / ref=4 / deblock=1:0:0 / analyse=0x3:0x113 / me=umh / subme=8 / psy=1 / psy_rd=1.00:0.00 / mixed_ref=1 / me_range=24 / chroma_me=1 / trellis=1 / 8x8dct=1 / cqm=0 / deadzone=21,11 / fast_pskip=1 / chroma_qp_offset=-2 / threads=3 / lookahead_threads=1 / sliced_threads=0 / nr=0 / decimate=1 / interlaced=0 / bluray_compat=0 / constrained_intra=0 / bframes=3 / b_pyramid=0 / b_adapt=2 / b_bias=0 / direct=3 / weightb=1 / open_gop=0 / weightp=2 / keyint=250 / keyint_min=25 / scenecut=40 / intra_refresh=0 / rc_lookahead=40 / rc=abr / mbtree=1 / bitrate=1600 / ratetol=1.0 / qcomp=0.60 / qpmin=10 / qpmax=51 / qpstep=4 / ip_ratio=1.41 / aq=1:1.00
Language : English
Default : Yes
Forced : No

Audio
ID : 2
Format : AC-3
Format/Info : Audio Coding 3
Format settings, Endianness : Big
Codec ID : A_AC3
Duration : 2 h 4 min
Bit rate mode : Constant
Bit rate : 448 kb/s
Channel(s) : 6 channels
Channel positions : Front: L C R, Side: L R, LFE
Sampling rate : 48.0 kHz
Frame rate : 31.250 FPS (1536 SPF)
Bit depth : 16 bits
Compression mode : Lossy
Delay relative to video : -40 ms
Stream size : 398 MiB (22%)
Language : Lingala
Service kind : Complete Main
Default : Yes
Forced : No

Text
ID : 3
Format : VobSub
Muxing mode : zlib
Codec ID : S_VOBSUB
Codec ID/Info : Picture based subtitle format used on DVDs
Language : English
Default : Yes
Forced : No

Menu
00:00:00.066 : en:Chapter 01
00:15:21.787 : en:Chapter 02
00:31:57.582 : en:Chapter 03
00:46:11.635 : en:Chapter 04
01:02:47.430 : en:Chapter 05
01:17:55.137 : en:Chapter 06
01:33:04.445 : en:Chapter 07
01:48:48.989 : en:Chapter 08




Screenshots (click to enlarge to original size):

Félicité (2017)

Félicité (2017)

Félicité (2017)


Félicité (2017)



–––––––––––––––––––––––––––––––––––––––-
>>> "DVDRip" <<< OR >>> "Drama" <<<
–––––––––––––––––––––––––––––––––––––––-
>>> Visit Blog RSU75 Here <<<
–––––––––––––––––––––––––––––––––––––––-