Getting Naked: A Burlesque Story (2017)

Posted By: Tavaz
1080p (FullHD) / WEB-DL IMDb
Getting Naked: A Burlesque Story (2017)

Getting Naked: A Burlesque Story (2017)
WEB-DL | MKV | 1920x1080 | English | H264 @ 9392 kbps | E-AC-3 @ 640 kbps | 1 h 25 min | 6.00 GiB
WEB-DL | MKV | 1280x720 | English | H264 @ 3312 kbps | E-AC-3 @ 640 kbps | 1 h 25 min | 2.37 GiB
Subtitles: English
Genre: Documentary

Four performers in the neo-burlesque scene in New York City discover a new identity and belonging in a world of bawdy comedy and striptease. However, they find that this community does not insulate from the harsh reality of life in the city.

fb6ddd6fb91f41529c7606593fbc604b.mkv (6.0 GB)



General
Unique ID : 215521550543451985972990724400409488111 (0xA223F0D74D2EEDA721C21DEF35082AEF)
Complete name : ./fb6ddd6fb91f41529c7606593fbc604b.mkv
Format : Matroska
Format version : Version 4 / Version 2
File size : 6.00 GiB
Duration : 1 h 25 min
Overall bit rate mode : Variable
Overall bit rate : 10.0 Mb/s
Encoded date : UTC 2018-07-11 15:56:19
Writing application : mkvmerge v24.0.0 ('Beyond The Pale') 64-bit
Writing library : libebml v1.3.5 + libmatroska v1.4.8

Video
ID : 1
Format : AVC
Format/Info : Advanced Video Codec
Format profile : High@L4
Format settings : CABAC / 4 Ref Frames
Format settings, CABAC : Yes
Format settings, RefFrames : 4 frames
Codec ID : V_MPEG4/ISO/AVC
Duration : 1 h 25 min
Bit rate mode : Variable
Bit rate : 9 392 kb/s
Maximum bit rate : 15.0 Mb/s
Width : 1 920 pixels
Height : 1 080 pixels
Display aspect ratio : 16:9
Frame rate mode : Constant
Frame rate : 23.976 (24000/1001) FPS
Color space : YUV
Chroma subsampling : 4:2:0
Bit depth : 8 bits
Scan type : Progressive
Bits/(Pixel*Frame) : 0.189
Stream size : 5.62 GiB (94%)
Default : Yes
Forced : No
Color range : Limited
Color primaries : BT.709
Transfer characteristics : BT.709
Matrix coefficients : BT.709

Audio
ID : 2
Format : E-AC-3
Format/Info : Enhanced Audio Coding 3
Format settings, Endianness : Big
Codec ID : A_EAC3
Duration : 1 h 25 min
Bit rate mode : Constant
Bit rate : 640 kb/s
Channel(s) : 6 channels
Channel positions : Front: L C R, Side: L R, LFE
Sampling rate : 48.0 kHz
Frame rate : 187.500 FPS (256 SPF)
Compression mode : Lossy
Stream size : 392 MiB (6%)
Language : English
Service kind : Complete Main
Default : Yes
Forced : No

Text #1
ID : 3
Format : UTF-8
Codec ID : S_TEXT/UTF8
Codec ID/Info : UTF-8 Plain Text
Duration : 1 h 23 min
Bit rate : 69 b/s
Count of elements : 1198
Stream size : 42.5 KiB (0%)
Language : English
Default : No
Forced : No

Text #2
ID : 4
Format : UTF-8
Codec ID : S_TEXT/UTF8
Codec ID/Info : UTF-8 Plain Text
Duration : 1 h 23 min
Bit rate : 75 b/s
Count of elements : 1314
Stream size : 46.0 KiB (0%)
Title : SDH
Language : English
Default : No
Forced : No





Getting Naked: A Burlesque Story (2017)


Getting Naked: A Burlesque Story (2017)


Getting Naked: A Burlesque Story (2017)


Getting Naked: A Burlesque Story (2017)


Getting Naked: A Burlesque Story (2017)