Google and the World Brain (2013)

Posted By: notbanned
720p (HD) / WEBRip IMDb
Google and the World Brain (2013)

Google and the World Brain (2013)
WEBRip | 1280x714 | .MP4/AVC @ 1050 Kbps | 1 h 28 min | 761 MiB
Audio: English AAC 140 kbps, 2 channels | Subs: None
Genre: Documentary | Drama

The story of the most ambitious project ever conceived on the Internet, and the people who tried to stop it. In 1937 HG Wells predicted the creation of the "World Brain", a giant global library that contained all human knowledge which would lead to a new form of higher intelligence. Seventy year later the realization of that dream was underway, as Google scanned millions and millions of books for its Google Books website. But over half those books were still in copyright, and authors across the world launched a campaign to stop them, climaxing in a New York courtroom in 2011. A film about the dreams, dilemmas and dangers of the Internet, set in spectacular locations in China, USA, Europe and Latin America.

General
Complete name : Google.And.The.World.Brain.2013.720p.mp4
Format : MPEG-4
Format profile : Base Media
Codec ID : isom (isom/iso2/avc1/mp41)
File size : 761 MiB
Duration : 1 h 28 min
Overall bit rate : 1 196 kb/s

Video
ID : 1
Format : AVC
Format/Info : Advanced Video Codec
Format profile : High@L4.1
Format settings, CABAC : Yes
Format settings, ReFrames : 4 frames
Codec ID : avc1
Codec ID/Info : Advanced Video Coding
Duration : 1 h 28 min
Bit rate : 1 050 kb/s
Width : 1 280 pixels
Height : 714 pixels
Display aspect ratio : 16:9
Frame rate mode : Constant
Frame rate : 25.000 FPS
Color space : YUV
Chroma subsampling : 4:2:0
Bit depth : 8 bits
Scan type : Progressive
Bits/(Pixel*Frame) : 0.046
Stream size : 668 MiB (88%)
Writing library : x264 core 152
Encoding settings : cabac=1 / ref=4 / deblock=1:-1:-1 / analyse=0x3:0x133 / me=umh / subme=9 / psy=1 / psy_rd=1.00:0.15 / mixed_ref=1 / me_range=24 / chroma_me=1 / trellis=2 / 8x8dct=1 / cqm=0 / deadzone=21,11 / fast_pskip=0 / chroma_qp_offset=-3 / threads=12 / lookahead_threads=1 / sliced_threads=0 / nr=0 / decimate=1 / interlaced=0 / bluray_compat=0 / constrained_intra=0 / bframes=3 / b_pyramid=2 / b_adapt=2 / b_bias=0 / direct=3 / weightb=1 / open_gop=0 / weightp=2 / keyint=250 / keyint_min=23 / scenecut=40 / intra_refresh=0 / rc_lookahead=60 / rc=2pass / mbtree=1 / bitrate=1050 / ratetol=1.0 / qcomp=0.60 / qpmin=0 / qpmax=69 / qpstep=4 / cplxblur=20.0 / qblur=0.5 / vbv_maxrate=31250 / vbv_bufsize=31250 / nal_hrd=none / filler=0 / ip_ratio=1.40 / aq=1:1.00

Audio
ID : 2
Format : AAC
Format/Info : Advanced Audio Codec
Format profile : LC
Codec ID : 40
Duration : 1 h 28 min
Bit rate mode : Constant
Bit rate : 140 kb/s
Channel(s) : 2 channels
Channel positions : Front: L R
Sampling rate : 48.0 kHz
Frame rate : 46.875 FPS (1024 spf)
Compression mode : Lossy
Stream size : 89.3 MiB (12%)
Default : Yes
Alternate group : 1


Screenshots:

Google and the World Brain (2013)

Google and the World Brain (2013)

Google and the World Brain (2013)

Google and the World Brain (2013)