Hell Night (1981)

Posted By: Without
1080p (FullHD) / BDRip IMDb
Hell Night (1981)

Hell Night (1981)
BDRip 720p | MKV | 1280x688 | AVC@6160 kb/s | English DTS@1509 kb/s
Subs: English | 2 channels | 1 h 41 min | 5.46 GB
BDRip 1080p | MKV | 1920x1040 | AVC@13.8 Mb/s | English DTS@1509 kb/s
Subs: English | 2 channels | 1 h 41 min | 10.9 GB
Genre: Horror, Thriller

Four college pledges are forced to spend the night in a deserted old mansion, where they are stalked by the monstrous survivor of a family massacre years earlier.



General
Hell.Night.1981.720p.BluRay.x264-PSYCHD.mkv
Format : Matroska
Format version : Version 4 / Version 2
File size : 5.46 GiB
Duration : 1 h 41 min
Overall bit rate : 7 671 kb/s
Encoded date : UTC 2010-02-22 21:41:29
Writing application : no_variable_data
Writing library : no_variable_data

Video
ID : 1
Format : AVC
Format/Info : Advanced Video Codec
Format profile : High@L4.1
Format settings, CABAC : Yes
Format settings, ReFrames : 5 frames
Codec ID : V_MPEG4/ISO/AVC
Duration : 1 h 41 min
Bit rate : 6 160 kb/s
Width : 1 280 pixels
Height : 688 pixels
Display aspect ratio : 1.85:1
Frame rate mode : Constant
Frame rate : 23.976 (24000/1001) FPS
Color space : YUV
Chroma subsampling : 4:2:0
Bit depth : 8 bits
Scan type : Progressive
Bits/(Pixel*Frame) : 0.292
Stream size : 4.28 GiB (78%)
Writing library : x264 core 155 r2893 b00bcaf
Encoding settings : cabac=1 / ref=5 / deblock=1:-3:-3 / analyse=0x3:0x113 / me=umh / subme=8 / psy=1 / psy_rd=1.10:0.00 / mixed_ref=1 / me_range=24 / chroma_me=1 / trellis=2 / 8x8dct=1 / cqm=0 / deadzone=21,11 / fast_pskip=1 / chroma_qp_offset=-2 / threads=18 / lookahead_threads=3 / sliced_threads=0 / nr=0 / decimate=1 / interlaced=0 / bluray_compat=0 / constrained_intra=0 / bframes=3 / b_pyramid=2 / b_adapt=2 / b_bias=0 / direct=3 / weightb=1 / open_gop=0 / weightp=2 / keyint=240 / keyint_min=24 / scenecut=40 / intra_refresh=0 / rc_lookahead=50 / rc=2pass / mbtree=1 / bitrate=6160 / ratetol=1.0 / qcomp=0.60 / qpmin=0 / qpmax=69 / qpstep=4 / cplxblur=20.0 / qblur=0.5 / ip_ratio=1.40 / aq=3:0.75
Default : Yes
Forced : No
Statistics Tags Issue : no_variable_data 1970-01-01 00:00:00 / no_variable_data 2010-02-22 21:41:29
FromStats_BitRate : 6160695
FromStats_Duration : 01:41:58.321000000
FromStats_FrameCount : 146693
FromStats_StreamSize : 4711639343

Audio
ID : 2
Format : DTS
Format/Info : Digital Theater Systems
Mode : 16
Format settings, Endianness : Big
Codec ID : A_DTS
Duration : 1 h 41 min
Bit rate mode : Constant
Bit rate : 1 509 kb/s
Channel(s) : 2 channels
Channel positions : Front: L R
Sampling rate : 48.0 kHz
Frame rate : 93.750 FPS (512 spf)
Bit depth : 24 bits
Compression mode : Lossy
Stream size : 1.07 GiB (20%)
Language : English
Default : Yes
Forced : No
Statistics Tags Issue : no_variable_data 1970-01-01 00:00:00 / no_variable_data 2010-02-22 21:41:29
FromStats_BitRate : 1508999
FromStats_Duration : 01:41:59.030000000
FromStats_FrameCount : 573659
FromStats_StreamSize : 1154201908

Text #1
ID : 3
Format : UTF-8
Codec ID : S_TEXT/UTF8
Codec ID/Info : UTF-8 Plain Text
Language : English
Default : No
Forced : No
Statistics Tags Issue : no_variable_data 1970-01-01 00:00:00 / no_variable_data 2010-02-22 21:41:29
FromStats_BitRate : 31
FromStats_Duration : 01:30:54.282000000
FromStats_FrameCount : 765
FromStats_StreamSize : 21457

Text #2
ID : 4
Format : UTF-8
Codec ID : S_TEXT/UTF8
Codec ID/Info : UTF-8 Plain Text
Title : SDH
Language : English
Default : No
Forced : No
Statistics Tags Issue : no_variable_data 1970-01-01 00:00:00 / no_variable_data 2010-02-22 21:41:29
FromStats_BitRate : 32
FromStats_Duration : 01:38:13.846000000
FromStats_FrameCount : 942
FromStats_StreamSize : 23886

Menu
00:00:00.000 : en:00:00:00.000
00:10:29.128 : en:00:10:29.128
00:18:51.380 : en:00:18:51.380
00:27:54.089 : en:00:27:54.089
00:35:55.570 : en:00:35:55.570
00:41:45.503 : en:00:41:45.503
00:50:01.498 : en:00:50:01.498
00:58:30.882 : en:00:58:30.882
01:05:44.816 : en:01:05:44.816
01:14:42.186 : en:01:14:42.186
01:22:27.192 : en:01:22:27.192
01:37:52.992 : en:01:37:52.992

General
Hell.Night.1981.1080p.BluRay.x264-PSYCHD.mkv
Format : Matroska
Format version : Version 4 / Version 2
File size : 10.9 GiB
Duration : 1 h 41 min
Overall bit rate : 15.3 Mb/s
Encoded date : UTC 2010-02-22 21:41:29
Writing application : no_variable_data
Writing library : no_variable_data

Video
ID : 1
Format : AVC
Format/Info : Advanced Video Codec
Format profile : High@L4.1
Format settings, CABAC : Yes
Format settings, ReFrames : 4 frames
Codec ID : V_MPEG4/ISO/AVC
Duration : 1 h 41 min
Bit rate : 13.8 Mb/s
Width : 1 920 pixels
Height : 1 040 pixels
Display aspect ratio : 1.85:1
Frame rate mode : Constant
Frame rate : 23.976 (24000/1001) FPS
Color space : YUV
Chroma subsampling : 4:2:0
Bit depth : 8 bits
Scan type : Progressive
Bits/(Pixel*Frame) : 0.289
Stream size : 9.64 GiB (88%)
Writing library : x264 core 155 r2893 b00bcaf
Encoding settings : cabac=1 / ref=4 / deblock=1:-3:-3 / analyse=0x3:0x113 / me=umh / subme=8 / psy=1 / psy_rd=1.10:0.00 / mixed_ref=1 / me_range=32 / chroma_me=1 / trellis=2 / 8x8dct=1 / cqm=0 / deadzone=21,11 / fast_pskip=1 / chroma_qp_offset=-2 / threads=18 / lookahead_threads=3 / sliced_threads=0 / nr=0 / decimate=1 / interlaced=0 / bluray_compat=0 / constrained_intra=0 / bframes=3 / b_pyramid=2 / b_adapt=2 / b_bias=0 / direct=3 / weightb=1 / open_gop=0 / weightp=2 / keyint=240 / keyint_min=24 / scenecut=40 / intra_refresh=0 / rc_lookahead=50 / rc=2pass / mbtree=1 / bitrate=13838 / ratetol=1.0 / qcomp=0.60 / qpmin=0 / qpmax=69 / qpstep=4 / cplxblur=20.0 / qblur=0.5 / ip_ratio=1.40 / aq=3:0.75
Default : Yes
Forced : No
Statistics Tags Issue : no_variable_data 1970-01-01 00:00:00 / no_variable_data 2010-02-22 21:41:29
FromStats_BitRate : 13838860
FromStats_Duration : 01:41:58.321000000
FromStats_FrameCount : 146693
FromStats_StreamSize : 10583824091

Audio
ID : 2
Format : DTS
Format/Info : Digital Theater Systems
Mode : 16
Format settings, Endianness : Big
Codec ID : A_DTS
Duration : 1 h 41 min
Bit rate mode : Constant
Bit rate : 1 509 kb/s
Channel(s) : 2 channels
Channel positions : Front: L R
Sampling rate : 48.0 kHz
Frame rate : 93.750 FPS (512 spf)
Bit depth : 24 bits
Compression mode : Lossy
Stream size : 1.07 GiB (10%)
Language : English
Default : Yes
Forced : No
Statistics Tags Issue : no_variable_data 1970-01-01 00:00:00 / no_variable_data 2010-02-22 21:41:29
FromStats_BitRate : 1508999
FromStats_Duration : 01:41:59.030000000
FromStats_FrameCount : 573659
FromStats_StreamSize : 1154201908

Text #1
ID : 3
Format : UTF-8
Codec ID : S_TEXT/UTF8
Codec ID/Info : UTF-8 Plain Text
Language : English
Default : No
Forced : No
Statistics Tags Issue : no_variable_data 1970-01-01 00:00:00 / no_variable_data 2010-02-22 21:41:29
FromStats_BitRate : 31
FromStats_Duration : 01:30:54.282000000
FromStats_FrameCount : 765
FromStats_StreamSize : 21457

Text #2
ID : 4
Format : UTF-8
Codec ID : S_TEXT/UTF8
Codec ID/Info : UTF-8 Plain Text
Title : SDH
Language : English
Default : No
Forced : No
Statistics Tags Issue : no_variable_data 1970-01-01 00:00:00 / no_variable_data 2010-02-22 21:41:29
FromStats_BitRate : 32
FromStats_Duration : 01:38:13.846000000
FromStats_FrameCount : 942
FromStats_StreamSize : 23886

Menu
00:00:00.000 : en:00:00:00.000
00:10:29.128 : en:00:10:29.128
00:18:51.380 : en:00:18:51.380
00:27:54.089 : en:00:27:54.089
00:35:55.570 : en:00:35:55.570
00:41:45.503 : en:00:41:45.503
00:50:01.498 : en:00:50:01.498
00:58:30.882 : en:00:58:30.882
01:05:44.816 : en:01:05:44.816
01:14:42.186 : en:01:14:42.186
01:22:27.192 : en:01:22:27.192
01:37:52.992 : en:01:37:52.992


BDRip 720p Screenshots

Hell Night (1981)

Hell Night (1981)

Hell Night (1981)


BDRip 1080p Screenshots

Hell Night (1981)

Hell Night (1981)

Hell Night (1981)


Come Visit My Blog (•‿•)