Hey Arnold: The Jungle Movie (2017)

Posted By: JohnSmith
720p (HD) / WEB-DL IMDb
Hey Arnold: The Jungle Movie (2017)

Hey Arnold: The Jungle Movie (2017)
WEB-DL 720p | MKV / AVC@1993 kb/s | 1280x720 | 1h 21mn | 1.26 GB
English: AC3, 224 kb/s (2 ch) | Subtitles: English
Genre: Animation | Adventure | Comedy | Family

Picking up where Hey Arnold! (1996) left off, this tells the story of what happened to Arnold's parents.




General
Unique ID : 185949236364518319464366074406988232947 (0x8BE4852EC759FE0E9DCFFFEE428538F3)
Complete name : D:\Downloads\Hey.Arnold.The.Jungle.Movie.2017.720p.Amazon.WEB-DL.DD+2.0.H.264-QOQ.mkv
Format : Matroska
Format version : Version 4 / Version 2
File size : 1.26 GiB
Duration : 1 h 21 min
Overall bit rate mode : Variable
Overall bit rate : 2 219 kb/s
Encoded date : UTC 2017-11-25 15:32:14
Writing application : mkvmerge v13.0.0 ('The Juggler') 64bit
Writing library : libebml v1.3.4 + libmatroska v1.4.5

Video
ID : 1
Format : AVC
Format/Info : Advanced Video Codec
Format profile : High@L3.1
Format settings, CABAC : Yes
Format settings, ReFrames : 5 frames
Codec ID : V_MPEG4/ISO/AVC
Duration : 1 h 21 min
Bit rate mode : Variable
Bit rate : 1 993 kb/s
Maximum bit rate : 4 500 kb/s
Width : 1 280 pixels
Height : 720 pixels
Display aspect ratio : 16:9
Frame rate mode : Constant
Frame rate : 23.976 (24000/1001) FPS
Color space : YUV
Chroma subsampling : 4:2:0
Bit depth : 8 bits
Scan type : Progressive
Bits/(Pixel*Frame) : 0.090
Stream size : 1.13 GiB (90%)
Default : Yes
Forced : No
Color range : Limited
Color primaries : BT.709
Transfer characteristics : BT.709
Matrix coefficients : BT.709

Audio
ID : 2
Format : E-AC-3
Format/Info : Enhanced Audio Coding 3
Format settings, Endianness : Big
Codec ID : A_EAC3
Duration : 1 h 21 min
Bit rate mode : Constant
Bit rate : 224 kb/s
Channel(s) : 2 channels
Channel positions : Front: L R
Sampling rate : 48.0 kHz
Frame rate : 187.500 FPS (256 spf)
Compression mode : Lossy
Stream size : 130 MiB (10%)
Language : English
Service kind : Complete Main
Default : Yes
Forced : No

Text
ID : 3
Format : UTF-8
Codec ID : S_TEXT/UTF8
Codec ID/Info : UTF-8 Plain Text
Duration : 1 h 21 min
Bit rate : 75 b/s
Count of elements : 1981
Stream size : 44.9 KiB (0%)
Language : English
Default : No
Forced : No




Screenshots

Hey Arnold: The Jungle Movie (2017)

Hey Arnold: The Jungle Movie (2017)

Hey Arnold: The Jungle Movie (2017)