History Channel - Hunting ISIS: Casualties of War (2018)

Posted By: notbanned
720p (HD) / WEBRip
History Channel - Hunting ISIS: Casualties of War (2018)

History Channel - Hunting ISIS: Casualties of War (2018)
WEBRip | 1280x720 | .MKV/AVC @ 2490 Kbps | 42 min 12 s | 791 MiB
Audio: English AAC 128 kbps, 2 channels | Subs: None
Genre: Documentary

PJ’s unit in Syria attacks the ISIS-held city of Al-Shaddadi, but heavy combat evades them once again. A frustrated PJ heads home to the States, leaving Levi and the others behind. Feeling stuck in Tennessee, Jeremiah seeks to do the opposite; he misses war and is desperate to return. As new faces join Pete’s medical team in preparation for the impending siege of Mosul in Iraq, all the volunteers do their best to walk the paths they’ve chosen–which soon proves fatal for one.

General
Unique ID : 238458755233567999542077008607593401364 (0xB3657C582ECF459259BA8ACD53588C14)
Complete name : Hunting.isis.Casualties.of.War.720p.mkv
Format : Matroska
Format version : Version 4 / Version 2
File size : 791 MiB
Duration : 42 min 12 s
Overall bit rate : 2 621 kb/s

Video
ID : 1
Format : AVC
Format/Info : Advanced Video Codec
Format profile : Main@L3.1
Format settings, CABAC : Yes
Format settings, ReFrames : 4 frames
Codec ID : V_MPEG4/ISO/AVC
Duration : 42 min 12 s
Bit rate : 2 490 kb/s
Width : 1 280 pixels
Height : 720 pixels
Display aspect ratio : 16:9
Frame rate mode : Variable
Frame rate : 23.976 FPS
Color space : YUV
Chroma subsampling : 4:2:0
Bit depth : 8 bits
Scan type : Progressive
Bits/(Pixel*Frame) : 0.113
Stream size : 752 MiB (95%)
Writing library : Zencoder Video Encoding System
Default : Yes
Forced : No

Audio
ID : 2
Format : AAC
Format/Info : Advanced Audio Codec
Format profile : LC
Codec ID : A_AAC
Duration : 42 min 12 s
Bit rate : 128 kb/s
Channel(s) : 2 channels
Channel positions : Front: L R
Sampling rate : 48.0 kHz
Frame rate : 46.875 FPS (1024 spf)
Compression mode : Lossy
Stream size : 38.6 MiB (5%)
Default : Yes
Forced : No


Screenshots:

History Channel - Hunting ISIS: Casualties of War (2018)

History Channel - Hunting ISIS: Casualties of War (2018)

History Channel - Hunting ISIS: Casualties of War (2018)

History Channel - Hunting ISIS: Casualties of War (2018)