In Organic We Trust (2012)

Posted By: JohnSmith
1080p (FullHD) / WEB-DL IMDb
In Organic We Trust (2012)

In Organic We Trust (2012)
WEB-DL 1080p | MKV / AVC@10 Mb/s | 1920x1080 | 1h 21mn | 5.77 GB
English: AC3, 256 kb/s (6 ch) | Subtitles: English
Genre: Documentary

A documentary that follows director Kip Pastor on a personal journey to answer commonly asked questions about organic food: What exactly is organic? Is it really better, or just a marketing scam?

IMDB - 1 win & 2 nominations.



General
Unique ID : 239152760719672436183036431091502207024 (0xB3EB2574EB364D28A29BF57284C0D030)
Complete name : D:\Downloads\In.Organic.We.Trust.2012.1080p.Amazon.WEB-DL.DD+5.1.H.264-QOQ.mkv
Format : Matroska
Format version : Version 4 / Version 2
File size : 5.77 GiB
Duration : 1 h 21 min
Overall bit rate : 10.1 Mb/s
Encoded date : UTC 2018-01-09 09:38:21
Writing application : mkvmerge v13.0.0 ('The Juggler') 64bit
Writing library : libebml v1.3.4 + libmatroska v1.4.5

Video
ID : 1
Format : AVC
Format/Info : Advanced Video Codec
Format profile : High@L4
Format settings, CABAC : Yes
Format settings, ReFrames : 4 frames
Codec ID : V_MPEG4/ISO/AVC
Duration : 1 h 21 min
Bit rate mode : Constant
Bit rate : 10 000 kb/s
Width : 1 920 pixels
Height : 1 080 pixels
Display aspect ratio : 16:9
Frame rate mode : Constant
Frame rate : 23.976 (24000/1001) FPS
Color space : YUV
Chroma subsampling : 4:2:0
Bit depth : 8 bits
Scan type : Progressive
Bits/(Pixel*Frame) : 0.201
Stream size : 5.62 GiB (97%)
Language : English
Default : Yes
Forced : No
Color range : Limited
Color primaries : BT.709
Transfer characteristics : BT.709
Matrix coefficients : BT.709

Audio
ID : 2
Format : E-AC-3
Format/Info : Enhanced Audio Coding 3
Format settings, Endianness : Big
Codec ID : A_EAC3
Duration : 1 h 21 min
Bit rate mode : Constant
Bit rate : 256 kb/s
Channel(s) : 6 channels
Channel positions : Front: L C R, Side: L R, LFE
Sampling rate : 48.0 kHz
Frame rate : 187.500 FPS (256 spf)
Compression mode : Lossy
Stream size : 149 MiB (3%)
Language : English
Service kind : Complete Main
Default : Yes
Forced : No

Text #1
ID : 3
Format : UTF-8
Codec ID : S_TEXT/UTF8
Codec ID/Info : UTF-8 Plain Text
Duration : 1 h 19 min
Bit rate : 106 b/s
Count of elements : 2482
Stream size : 62.1 KiB (0%)
Language : English
Default : No
Forced : No

Text #2
ID : 4
Format : UTF-8
Codec ID : S_TEXT/UTF8
Codec ID/Info : UTF-8 Plain Text
Duration : 1 h 19 min
Bit rate : 107 b/s
Count of elements : 2493
Stream size : 62.3 KiB (0%)
Title : SDH
Language : English
Default : No
Forced : No




Screenshots

In Organic We Trust (2012)

In Organic We Trust (2012)

In Organic We Trust (2012)