Irreversible (2002)

Posted By: Tavaz
SD / DVDRip IMDb
Irreversible (2002)

Irreversible (2002)
DVDRip | AVI | English | 592x256 | MP4V-ES @ 900 kbps | MPEG Audio @ 134 kbps | 1 h 33 min | 700 MiB
Genre: Crime, Drama, Mystery, Thriller
Subtitles: Hebrew

Events over the course of one traumatic night in Paris unfold in reverse-chronological order as the beautiful Alex is brutally raped and beaten by a stranger in the underpass. Her boyfriend and ex-lover take matters into their own hands by hiring two criminals to help them find the rapist so that they can exact revenge. A simultaneously beautiful and terrible examination of the destructive nature of cause and effect, and how time destroys everything.

Irreversible.DVDRip.XviD_HeB.SubbeD_Up_By_Moti1691_WwW.DDL-IL.NeT.avi (700.4 MB)



General
Complete name : ./Irreversible.DVDRip.XviD_HeB.SubbeD_Up_By_Moti1691_WwW.DDL-IL.NeT.avi
Format : AVI
Format/Info : Audio Video Interleave
File size : 700 MiB
Duration : 1 h 33 min
Overall bit rate mode : Variable
Overall bit rate : 1 048 kb/s
Writing application : VirtualDubMod 1.5.10.2 (build 2542/release)
Writing library : VirtualDubMod build 2542/release

Video
ID : 0
Format : MPEG-4 Visual
Format profile : Simple@L3
Format settings, BVOP : No
Format settings, QPel : No
Format settings, GMC : No warppoints
Format settings, Matrix : Default (H.263)
Codec ID : XVID
Codec ID/Hint : XviD
Duration : 1 h 33 min
Bit rate : 900 kb/s
Width : 592 pixels
Height : 256 pixels
Display aspect ratio : 2.35:1
Frame rate : 25.000 FPS
Color space : YUV
Chroma subsampling : 4:2:0
Bit depth : 8 bits
Scan type : Progressive
Compression mode : Lossy
Bits/(Pixel*Frame) : 0.238
Stream size : 602 MiB (86%)
Writing library : XviD 1.1.2 (UTC 2006-11-01)

Audio
ID : 1
Format : MPEG Audio
Format version : Version 1
Format profile : Layer 3
Format settings : Joint stereo / MS Stereo
Mode : Joint stereo
Mode extension : MS Stereo
Codec ID : 55
Codec ID/Hint : MP3
Duration : 1 h 33 min
Bit rate mode : Variable
Bit rate : 135 kb/s
Channel(s) : 2 channels
Sampling rate : 48.0 kHz
Compression mode : Lossy
Stream size : 89.9 MiB (13%)
Alignment : Aligned on interleaves
Interleave, duration : 24 ms (0.60 video frame)
Interleave, preload duration : 368 ms
Writing library : LAME3.88 (beta)





Irreversible (2002)


Irreversible (2002)


Irreversible (2002)


Irreversible (2002)


Irreversible (2002)