Jukai - La foresta dei suicidi (2016)

Posted By: JohnSmith
SD / BDRip IMDb
Jukai - La foresta dei suicidi (2016)

Jukai - La foresta dei suicidi / The Forest (2016)
BDRip | MKV / AVC@1930 kb/s | 848x464 | 1h 33mn | 1.68 GB
Italian (dubbed): AC3, 640 kb/s (6 ch) | Subtitles: Italian
BDRip 720p | MKV / AVC@4450 kb/s | 1280x690 | 1h 33mn | 3.40 GB
Italian (dubbed): DTS, 768 kb/s (6 ch) | Subtitles: Italian
Genre: Horror | Mystery | Thriller

Sara, una giovane americana, va alla ricerca della sorella gemella, misteriosamente scomparsa nella leggendaria foresta di Aokigahara, alla base del monte Fuji in Giappone. Nonostante gli avvertimenti, Sara entra nel bosco determinata a scoprire la verità sul destino della gemella ma è costretta a confrontarsi con le anime arrabbiare e tormentate dei morti, che predano chiunque si addentri nel loro territorio.




General
Unique ID : 191786100245847040142199555383712037517 (0x9048A8CA6144204F9D7256C8C8A43A8D)
Complete name : A:\Jukai.La.Foresta.Dei.Suicidi.2016.iTA.Bluray.480p.x264-CYBER.mkv
Format : Matroska
Format version : Version 4 / Version 2
File size : 1.68 GiB
Duration : 1 h 33 min
Overall bit rate : 2 566 kb/s
Encoded date : UTC 2018-01-12 20:24:58
Writing application : mkvmerge v8.3.0 ('Over the Horizon') 64bit
Writing library : libebml v1.3.1 + libmatroska v1.4.2

Video
ID : 1
Format : AVC
Format/Info : Advanced Video Codec
Format profile : High@L4.1
Format settings, CABAC : Yes
Format settings, ReFrames : 5 frames
Codec ID : V_MPEG4/ISO/AVC
Duration : 1 h 33 min
Bit rate : 1 930 kb/s
Width : 848 pixels
Height : 464 pixels
Display aspect ratio : 1.85:1
Original display aspect rat : 1.85:1
Frame rate mode : Constant
Frame rate : 24.000 FPS
Original frame rate : 23.976 (24000/1001) FPS
Color space : YUV
Chroma subsampling : 4:2:0
Bit depth : 8 bits
Scan type : Progressive
Bits/(Pixel*Frame) : 0.204
Stream size : 1.26 GiB (75%)
Writing library : x264 core 148 r2692 64f4e24
Language : English
Default : Yes
Forced : No

Audio
ID : 2
Format : AC-3
Format/Info : Audio Coding 3
Format settings, Endianness : Big
Codec ID : A_AC3
Duration : 1 h 33 min
Bit rate mode : Constant
Bit rate : 640 kb/s
Channel(s) : 6 channels
Channel positions : Front: L C R, Side: L R, LFE
Sampling rate : 48.0 kHz
Frame rate : 31.250 FPS (1536 spf)
Bit depth : 16 bits
Compression mode : Lossy
Stream size : 428 MiB (25%)
Language : Italian
Service kind : Complete Main
Default : Yes
Forced : No

Text
ID : 3
Format : UTF-8
Codec ID : S_TEXT/UTF8
Codec ID/Info : UTF-8 Plain Text
Duration : 1 h 24 min
Bit rate : 34 b/s
Count of elements : 688
Stream size : 21.4 KiB (0%)
Language : Italian
Default : No
Forced : No





General
Unique ID : 240204508681677111025603653834679043462 (0xB4B5B4A2823CBA10824FA68CAC7CC586)
Complete name : A:\Jukai.La.Foresta.Dei.Suicidi.2016.iTA.Bluray.720p.x264-CYBER.mkv
Format : Matroska
Format version : Version 4 / Version 2
File size : 3.40 GiB
Duration : 1 h 33 min
Overall bit rate : 5 208 kb/s
Encoded date : UTC 2018-01-12 20:24:15
Writing application : mkvmerge v8.3.0 ('Over the Horizon') 64bit
Writing library : libebml v1.3.1 + libmatroska v1.4.2

Video
ID : 1
Format : AVC
Format/Info : Advanced Video Codec
Format profile : High@L4.1
Format settings, CABAC : Yes
Format settings, ReFrames : 5 frames
Codec ID : V_MPEG4/ISO/AVC
Duration : 1 h 33 min
Bit rate : 4 450 kb/s
Width : 1 280 pixels
Height : 690 pixels
Display aspect ratio : 1.85:1
Original display aspect rat : 1.85:1
Frame rate mode : Constant
Frame rate : 24.000 FPS
Original frame rate : 23.976 (24000/1001) FPS
Color space : YUV
Chroma subsampling : 4:2:0
Bit depth : 8 bits
Scan type : Progressive
Bits/(Pixel*Frame) : 0.210
Stream size : 2.90 GiB (85%)
Writing library : x264 core 148 r2692 64f4e24
Language : English
Default : Yes
Forced : No

Audio
ID : 2
Format : DTS
Format/Info : Digital Theater Systems
Mode : 16
Format settings, Endianness : Big
Codec ID : A_DTS
Duration : 1 h 33 min
Bit rate mode : Constant
Bit rate : 768 kb/s
Channel(s) : 6 channels
Channel positions : Front: L C R, Side: L R, LFE
Sampling rate : 48.0 kHz
Frame rate : 93.750 FPS (512 spf)
Bit depth : 16 bits
Compression mode : Lossy
Stream size : 513 MiB (15%)
Language : Italian
Default : Yes
Forced : No

Text
ID : 3
Format : UTF-8
Codec ID : S_TEXT/UTF8
Codec ID/Info : UTF-8 Plain Text
Duration : 1 h 24 min
Bit rate : 34 b/s
Count of elements : 688
Stream size : 21.4 KiB (0%)
Language : Italian
Default : No
Forced : No




Screenshots BDRip

Jukai - La foresta dei suicidi (2016)

Jukai - La foresta dei suicidi (2016)

Jukai - La foresta dei suicidi (2016)


Screenshots BDRip 720p

Jukai - La foresta dei suicidi (2016)

Jukai - La foresta dei suicidi (2016)

Jukai - La foresta dei suicidi (2016)