Junior Bonner (1972)

Posted By: Tavaz
1080p (FullHD) / BDRip IMDb
Junior Bonner (1972)

Junior Bonner (1972)
BDRip | MKV | 1920x816 | English | H264 @ 12515 kbps | DTS @ 1509 kbps | 1 h 40 min | 9.82 GiB
Subtitles: English
Genre: Action, Drama, Western

McQueen is Junior Bonner, an aging rodeo champ who returns to his home town to participate in the annual rodeo. He finds his family estranged, does what he can to help, and then moves on … after some good rodeo riding and a few brawls.

7bc1e75d45a64a4c85110c93cea904dc.mkv (9.8 GB)



General
Unique ID : 0 (0x0)
Complete name : ./7bc1e75d45a64a4c85110c93cea904dc.mkv
Format : Matroska
Format version : Version 4 / Version 2
File size : 9.82 GiB
Duration : 1 h 40 min
Overall bit rate : 14.0 Mb/s
Encoded date : UTC 2010-02-22 21:41:29
Writing application : no_variable_data
Writing library : no_variable_data

Video
ID : 1
Format : AVC
Format/Info : Advanced Video Codec
Format profile : High@L4.1
Format settings : CABAC / 5 Ref Frames
Format settings, CABAC : Yes
Format settings, RefFrames : 5 frames
Codec ID : V_MPEG4/ISO/AVC
Duration : 1 h 40 min
Bit rate : 12.5 Mb/s
Width : 1 920 pixels
Height : 816 pixels
Display aspect ratio : 2.35:1
Frame rate mode : Constant
Frame rate : 23.976 (24000/1001) FPS
Color space : YUV
Chroma subsampling : 4:2:0
Bit depth : 8 bits
Scan type : Progressive
Bits/(Pixel*Frame) : 0.333
Stream size : 8.57 GiB (87%)
Writing library : x264 core 155 r2893 b00bcaf
Encoding settings : cabac=1 / ref=5 / deblock=1:-3:-3 / analyse=0x3:0x113 / me=umh / subme=8 / psy=1 / psy_rd=1.10:0.00 / mixed_ref=1 / me_range=32 / chroma_me=1 / trellis=2 / 8x8dct=1 / cqm=0 / deadzone=21,11 / fast_pskip=1 / chroma_qp_offset=-2 / threads=18 / lookahead_threads=3 / sliced_threads=0 / nr=0 / decimate=1 / interlaced=0 / bluray_compat=0 / constrained_intra=0 / bframes=3 / b_pyramid=2 / b_adapt=2 / b_bias=0 / direct=3 / weightb=1 / open_gop=0 / weightp=2 / keyint=240 / keyint_min=24 / scenecut=40 / intra_refresh=0 / rc_lookahead=50 / rc=2pass / mbtree=1 / bitrate=12515 / ratetol=1.0 / qcomp=0.60 / qpmin=0 / qpmax=69 / qpstep=4 / cplxblur=20.0 / qblur=0.5 / ip_ratio=1.40 / aq=3:0.75
Default : Yes
Forced : No
Statistics Tags Issue : no_variable_data 1970-01-01 00:00:00 / no_variable_data 2010-02-22 21:41:29
FromStats_BitRate : 12513816
FromStats_Duration : 01:40:15.009000000
FromStats_FrameCount : 144216
FromStats_StreamSize : 9408840078

Audio
ID : 2
Format : DTS
Format/Info : Digital Theater Systems
Mode : 16
Format settings, Endianness : Big
Codec ID : A_DTS
Duration : 1 h 40 min
Bit rate mode : Constant
Bit rate : 1 509 kb/s
Channel(s) : 2 channels
Channel positions : Front: L R
Sampling rate : 48.0 kHz
Frame rate : 93.750 FPS (512 SPF)
Bit depth : 24 bits
Compression mode : Lossy
Stream size : 1.06 GiB (11%)
Language : English
Default : Yes
Forced : No
Statistics Tags Issue : no_variable_data 1970-01-01 00:00:00 / no_variable_data 2010-02-22 21:41:29
FromStats_BitRate : 1508999
FromStats_Duration : 01:40:15.030000000
FromStats_FrameCount : 563909
FromStats_StreamSize : 1134584908

Text
ID : 3
Format : UTF-8
Codec ID : S_TEXT/UTF8
Codec ID/Info : UTF-8 Plain Text
Language : English
Default : No
Forced : No
Statistics Tags Issue : no_variable_data 1970-01-01 00:00:00 / no_variable_data 2010-02-22 21:41:29
FromStats_BitRate : 48
FromStats_Duration : 01:39:01.269000000
FromStats_FrameCount : 1173
FromStats_StreamSize : 36074

Menu
00:00:00.000 : en:00:00:00.000
00:14:38.295 : en:00:14:38.295
00:25:17.184 : en:00:25:17.184
00:38:55.293 : en:00:38:55.293
00:51:33.967 : en:00:51:33.967
01:10:43.782 : en:01:10:43.782
01:25:13.401 : en:01:25:13.401
01:29:50.178 : en:01:29:50.178





Junior Bonner (1972)


Junior Bonner (1972)


Junior Bonner (1972)


Junior Bonner (1972)


Junior Bonner (1972)