獣道 (2017) - Kemonomichi (2017)

Posted By: Tavaz
720p (HD) / BDRip IMDb
獣道 (2017) - Kemonomichi (2017)

獣道 (2017) - Kemonomichi (2017)
BDRip | MKV | 1280x536 | Japanese | H264 @ 6274 kbps | AC-3 @ 640 kbps | 1 h 35 min | 4.62 GiB
Subtitles: English
Genre: Comedy, Drama

Born in a regional city, a young girl named Ai (Sairi Ito) is sent to a cult commune by her religious maniac mother and lives there for seven long years. After the cult is exposed by the police, Ai starts a new, normal life going to a regular middle school, but can't find a place to fit in normal society. Ai drops out to continue finding her path in life, first living with a rock-bottom delinquent family, then moving on to be part of a middle-class family, all along trying to find her place in this world. The only person who understands Ai is Ryota (Kenta Suga), another drop-out and cast-off from society. Ryota finds his path in a shady world of delinquents while Ai ends up working in the sex industry. Two teens' purity gets swallowed up by the urban jungle of a big regional city. A black comedy depicting lives of modern youth and their struggles in a place where there is no way out.

e905919159bd40448f6b7adb465cabb5.mkv (4.6 GB)



General
Unique ID : 223687181562728529505164053044626968514 (0xA84895888AE61A74C28EB2829E33CFC2)
Complete name : ./e905919159bd40448f6b7adb465cabb5.mkv
Format : Matroska
Format version : Version 4 / Version 2
File size : 4.62 GiB
Duration : 1 h 35 min
Overall bit rate : 6 916 kb/s
Movie name : Kemonomichi [2017] 720p BluRay - ZQ
Encoded date : UTC 2018-04-16 12:12:31
Writing application : mkvmerge v19.0.0 ('Brave Captain') 64-bit
Writing library : libebml v1.3.5 + libmatroska v1.4.8

Video
ID : 1
Format : AVC
Format/Info : Advanced Video Codec
Format profile : High@L4.1
Format settings : CABAC / 12 Ref Frames
Format settings, CABAC : Yes
Format settings, RefFrames : 12 frames
Codec ID : V_MPEG4/ISO/AVC
Duration : 1 h 35 min
Bit rate : 6 275 kb/s
Width : 1 280 pixels
Height : 536 pixels
Display aspect ratio : 2.40:1
Frame rate mode : Constant
Frame rate : 23.976 (24000/1001) FPS
Color space : YUV
Chroma subsampling : 4:2:0
Bit depth : 8 bits
Scan type : Progressive
Bits/(Pixel*Frame) : 0.381
Stream size : 4.19 GiB (91%)
Writing library : x264 core 155 r2901 7d0ff22
Encoding settings : cabac=1 / ref=12 / deblock=1:-3:-3 / analyse=0x3:0x133 / me=umh / subme=11 / psy=1 / psy_rd=0.95:0.00 / mixed_ref=1 / me_range=32 / chroma_me=1 / trellis=2 / 8x8dct=1 / cqm=0 / deadzone=21,11 / fast_pskip=0 / chroma_qp_offset=-2 / threads=12 / lookahead_threads=3 / sliced_threads=0 / nr=0 / decimate=0 / interlaced=0 / bluray_compat=0 / constrained_intra=0 / bframes=16 / b_pyramid=2 / b_adapt=2 / b_bias=0 / direct=3 / weightb=1 / open_gop=0 / weightp=2 / keyint=240 / keyint_min=23 / scenecut=40 / intra_refresh=0 / rc_lookahead=240 / rc=crf / mbtree=0 / crf=14.8 / qcomp=0.60 / qpmin=0 / qpmax=69 / qpstep=4 / vbv_maxrate=62500 / vbv_bufsize=78125 / crf_max=0.0 / nal_hrd=none / filler=0 / ip_ratio=1.30 / pb_ratio=1.20 / aq=3:0.65 / zones=11,66,crf=14.0/20882,25169,crf=14.5/32823,34378,crf=14.5/40174,44092,crf=14.5/70297,73976,crf=14.5/76591,79648,crf=14.0/83534,84542,crf=14.3/90956,91867,crf=14.0/94813,96867,crf=14.5/105349,107928,crf=14.5/122261,122892,crf=14.0
Language : Japanese
Default : Yes
Forced : No
Color range : Limited
Matrix coefficients : BT.709

Audio
ID : 2
Format : AC-3
Format/Info : Audio Coding 3
Format settings, Endianness : Big
Codec ID : A_AC3
Duration : 1 h 35 min
Bit rate mode : Constant
Bit rate : 640 kb/s
Channel(s) : 6 channels
Channel positions : Front: L C R, Side: L R, LFE
Sampling rate : 48.0 kHz
Frame rate : 31.250 FPS (1536 SPF)
Bit depth : 16 bits
Compression mode : Lossy
Stream size : 438 MiB (9%)
Language : Japanese
Service kind : Complete Main
Default : Yes
Forced : No

Text
ID : 3
Format : UTF-8
Codec ID : S_TEXT/UTF8
Codec ID/Info : UTF-8 Plain Text
Duration : 1 h 35 min
Bit rate : 33 b/s
Count of elements : 1033
Stream size : 23.2 KiB (0%)
Language : English
Default : Yes
Forced : No

Menu
00:00:00.000 : en:Chapter 1
00:05:57.274 : en:Chapter 2
00:11:37.572 : en:Chapter 3
00:17:30.925 : en:Chapter 4
00:23:55.267 : en:Chapter 5
00:27:57.092 : en:Chapter 6
00:34:11.758 : en:Chapter 7
00:41:28.820 : en:Chapter 8
00:48:20.648 : en:Chapter 9
00:55:25.113 : en:Chapter 10
01:02:09.976 : en:Chapter 11
01:09:05.683 : en:Chapter 12
01:15:43.372 : en:Chapter 13
01:21:59.665 : en:Chapter 14
01:26:21.134 : en:Chapter 15
01:31:51.047 : en:Chapter 16





獣道 (2017) - Kemonomichi (2017)


獣道 (2017) - Kemonomichi (2017)


獣道 (2017) - Kemonomichi (2017)


獣道 (2017) - Kemonomichi (2017)


獣道 (2017) - Kemonomichi (2017)