Landing Up (2018)

Posted By: Without
1080p (FullHD) / WEB-DL IMDb
Landing Up (2018)

Landing Up (2018)
HDRip | AVI | 720x304 | XviD@1583 kb/s | English AC3@384 kb/s | 6 channels | 1 h 38 min | 1.35 GB
WEB-DL 720p | MKV | 1280x544 | AVC@4074 kb/s | English AAC@125 kb/s | 2 channels | 1 h 38 min | 2.88 GB
WEB-DL 1080p | MKV | 1920x816 | AVC@4580 kb/s | English AAC@125 kb/s | 2 channels | 1 h 38 min | 3.23 GB
Genre: Drama

When a young woman finds herself living life on the streets she learns the art of picking up men to put a roof over her head. But when she meets the guy of her dreams her secret threatens to ruin their perfect relationship.



General
Landing Up.2018.HDRip.XviD.AC3-EVO.avi
Format : AVI
Format/Info : Audio Video Interleave
File size : 1.35 GiB
Duration : 1 h 38 min
Overall bit rate : 1 977 kb/s
Writing library : VirtualDub build 32593/release

Video
ID : 0
Format : MPEG-4 Visual
Format profile : Advanced Simple@L5
Format settings : BVOP2
Format settings, BVOP : 2
Format settings, QPel : No
Format settings, GMC : No warppoints
Format settings, Matrix : Default (H.263)
Muxing mode : Packed bitstream
Codec ID : XVID
Codec ID/Hint : XviD
Duration : 1 h 38 min
Bit rate : 1 583 kb/s
Width : 720 pixels
Height : 304 pixels
Display aspect ratio : 2.35:1
Frame rate : 23.976 (24000/1001) FPS
Color space : YUV
Chroma subsampling : 4:2:0
Bit depth : 8 bits
Scan type : Progressive
Compression mode : Lossy
Bits/(Pixel*Frame) : 0.302
Stream size : 1.08 GiB (80%)
Writing library : XviD 66

Audio
ID : 1
Format : AC-3
Format/Info : Audio Coding 3
Codec ID : 2000
Duration : 1 h 38 min
Bit rate mode : Constant
Bit rate : 384 kb/s
Channel(s) : 6 channels
Channel positions : Front: L C R, Side: L R, LFE
Sampling rate : 48.0 kHz
Frame rate : 31.250 FPS (1536 SPF)
Bit depth : 16 bits
Compression mode : Lossy
Stream size : 269 MiB (19%)
Alignment : Aligned on interleaves
Interleave, duration : 42 ms (1.00 video frame)
Interleave, preload duration : 512 ms
Service kind : Complete Main

General
Landing Up 2018 720p WEB-DL AAC H264-CMRG.mkv
Format : Matroska
Format version : Version 4 / Version 2
File size : 2.88 GiB
Duration : 1 h 38 min
Overall bit rate : 4 201 kb/s
Encoded date : UTC 2018-05-16 22:53:29
Writing application : mkvmerge v19.0.0 ('Brave Captain') 64-bit
Writing library : libebml v1.3.5 + libmatroska v1.4.8

Video
ID : 2
Format : AVC
Format/Info : Advanced Video Codec
Format profile : Main@L3.1
Format settings : 2 Ref Frames
Format settings, CABAC : No
Format settings, RefFrames : 2 frames
Codec ID : V_MPEG4/ISO/AVC
Duration : 1 h 38 min
Bit rate : 4 074 kb/s
Width : 1 280 pixels
Height : 544 pixels
Display aspect ratio : 2.35:1
Frame rate mode : Constant
Frame rate : 23.976 (23976/1000) FPS
Color space : YUV
Chroma subsampling : 4:2:0
Bit depth : 8 bits
Scan type : Progressive
Bits/(Pixel*Frame) : 0.244
Stream size : 2.79 GiB (97%)
Language : English
Default : Yes
Forced : No
Color range : Limited
Color primaries : BT.709
Transfer characteristics : BT.709
Matrix coefficients : BT.709

Audio
ID : 1
Format : AAC
Format/Info : Advanced Audio Codec
Format profile : LC
Codec ID : A_AAC-2
Duration : 1 h 38 min
Bit rate : 125 kb/s
Channel(s) : 2 channels
Channel positions : Front: L R
Sampling rate : 48.0 kHz
Frame rate : 46.875 FPS (1024 SPF)
Compression mode : Lossy
Delay relative to video : -42 ms
Stream size : 87.5 MiB (3%)
Language : English
Default : Yes
Forced : No

Menu
00:00:00.000 : en:Chapter One
00:15:00.000 : en:Chapter Two
00:30:00.000 : en:Chapter Three
00:45:00.000 : en:Chapter Four
01:00:00.000 : en:Chapter Five
01:15:00.000 : en:Chapter Six
01:30:00.000 : en:Chapter Seven

General
Landing Up 2018 1080p WEB-DL AAC H264-CMRG.mkv
Format : Matroska
Format version : Version 4 / Version 2
File size : 3.23 GiB
Duration : 1 h 38 min
Overall bit rate : 4 707 kb/s
Encoded date : UTC 2018-05-16 22:55:19
Writing application : mkvmerge v19.0.0 ('Brave Captain') 64-bit
Writing library : libebml v1.3.5 + libmatroska v1.4.8

Video
ID : 2
Format : AVC
Format/Info : Advanced Video Codec
Format profile : High@L4
Format settings : CABAC / 5 Ref Frames
Format settings, CABAC : Yes
Format settings, RefFrames : 5 frames
Codec ID : V_MPEG4/ISO/AVC
Duration : 1 h 38 min
Bit rate : 4 580 kb/s
Width : 1 920 pixels
Height : 816 pixels
Display aspect ratio : 2.35:1
Frame rate mode : Constant
Frame rate : 23.976 (23976/1000) FPS
Color space : YUV
Chroma subsampling : 4:2:0
Bit depth : 8 bits
Scan type : Progressive
Bits/(Pixel*Frame) : 0.122
Stream size : 3.14 GiB (97%)
Language : English
Default : Yes
Forced : No
Color range : Limited
Color primaries : BT.709
Transfer characteristics : BT.709
Matrix coefficients : BT.709

Audio
ID : 1
Format : AAC
Format/Info : Advanced Audio Codec
Format profile : LC
Codec ID : A_AAC-2
Duration : 1 h 38 min
Bit rate : 125 kb/s
Channel(s) : 2 channels
Channel positions : Front: L R
Sampling rate : 48.0 kHz
Frame rate : 46.875 FPS (1024 SPF)
Compression mode : Lossy
Delay relative to video : -42 ms
Stream size : 87.5 MiB (3%)
Language : English
Default : Yes
Forced : No

Menu
00:00:00.000 : en:Chapter One
00:15:00.000 : en:Chapter Two
00:30:00.000 : en:Chapter Three
00:45:00.000 : en:Chapter Four
01:00:00.000 : en:Chapter Five
01:15:00.000 : en:Chapter Six
01:30:00.000 : en:Chapter Seven


HDRip Screenshots

Landing Up (2018)

Landing Up (2018)

Landing Up (2018)


WEB-DL 720p Screenshots

Landing Up (2018)

Landing Up (2018)

Landing Up (2018)


WEB-DL 1080p Screenshots

Landing Up (2018)

Landing Up (2018)

Landing Up (2018)


Come Visit My Blog (•‿•)