The Young Karl Marx (2017)

Posted By: Tavaz
1080p (FullHD) / BDRip IMDb
The Young Karl Marx (2017)

The Young Karl Marx (2017)
BDRip | MKV | 1920x808 | English | H264 @ 10617 kbps | AC-3 @ 640 kbps | 1 h 58 min | 9.33 GiB
Subtitles: German, English
Genre: Drama, History

26 year-old Karl Marx embarks with his wife, Jenny, on the road to exile. In 1844 in Paris, he meets Friedrich Engels, an industrialist’s son, who has been investigating the sordid birth of the British working class. Engels, the dandy, provides the last piece of the puzzle to the young Karl Marx’s new vision of the world. Together, between censorship and the police’s repression, riots and political upheavals, they will lead the labor movement during its development into a modern era.

cQvzhqM9wgQhrujWKuAnpBD88hoPy6F.mkv (9.3 GB)



General
Unique ID : 317662892100435014163383486459411961315 (0xEEFBA5C9E12C2BCCC258EE9321D815E3)
Complete name : ./cQvzhqM9wgQhrujWKuAnpBD88hoPy6F.mkv
Format : Matroska
Format version : Version 4 / Version 2
File size : 9.33 GiB
Duration : 1 h 58 min
Overall bit rate : 11.3 Mb/s
Movie name : Raoul Peck - Le jeune Karl Marx (2017)
Encoded date : UTC 2018-01-19 18:45:37
Writing application : mkvmerge v20.0.0 ('I Am The Sun') 64-bit
Writing library : libebml v1.3.5 + libmatroska v1.4.8

Video
ID : 1
Format : AVC
Format/Info : Advanced Video Codec
Format profile : High@L4.1
Format settings : CABAC / 5 Ref Frames
Format settings, CABAC : Yes
Format settings, RefFrames : 5 frames
Codec ID : V_MPEG4/ISO/AVC
Duration : 1 h 58 min
Bit rate : 10.6 Mb/s
Width : 1 920 pixels
Height : 808 pixels
Display aspect ratio : 2.40:1
Frame rate mode : Constant
Frame rate : 24.000 FPS
Color space : YUV
Chroma subsampling : 4:2:0
Bit depth : 8 bits
Scan type : Progressive
Bits/(Pixel*Frame) : 0.285
Stream size : 8.76 GiB (94%)
Title : -EA
Writing library : x264 core 155 r2867+74 66b5600 t_mod_Custom_2 [8-bit@all X86_64]
Encoding settings : cabac=1 / ref=5 / deblock=1:-3:-3 / analyse=0x3:0x113 / me=umh / subme=10 / psy=1 / fade_compensate=0.00 / psy_rd=1.04:0.00 / mixed_ref=1 / me_range=32 / chroma_me=1 / trellis=2 / 8x8dct=1 / cqm=0 / deadzone=21,11 / fast_pskip=0 / chroma_qp_offset=-2 / threads=24 / lookahead_threads=4 / sliced_threads=0 / nr=0 / decimate=0 / interlaced=0 / bluray_compat=0 / constrained_intra=0 / fgo=0 / bframes=9 / b_pyramid=2 / b_adapt=2 / b_bias=0 / direct=3 / weightb=1 / open_gop=0 / weightp=2 / keyint=240 / keyint_min=24 / scenecut=40 / intra_refresh=0 / rc_lookahead=60 / rc=crf / mbtree=0 / crf=21.6000 / qcomp=0.75 / qpmin=0:0:0 / qpmax=69:69:69 / qpstep=4 / vbv_maxrate=62500 / vbv_bufsize=78125 / crf_max=0.0 / nal_hrd=none / filler=0 / ip_ratio=1.30 / pb_ratio=1.20 / aq=3:0.75 / aq-sensitivity=10.00 / aq-factor=1.00:1.00:1.00 / aq2=1:0.70 / aq2-sensitivity=15.00 / aq2-factor=1.00:1.00:1.00 / aq3=1:[0.70:0.70]:[0.70:0.70]:[0.70:0.70]:[0.70:0.70] / aq3-sensitivity=10.00 / aq3-factor=[1.00:1.00]:[1.00:1.00]:[1.00:1.00] / aq3-boundary=192:64:24
Language : English
Default : Yes
Forced : No
Color range : Limited
Color primaries : BT.709
Transfer characteristics : BT.709
Matrix coefficients : BT.709

Audio
ID : 2
Format : AC-3
Format/Info : Audio Coding 3
Format settings, Endianness : Big
Codec ID : A_AC3
Duration : 1 h 58 min
Bit rate mode : Constant
Bit rate : 640 kb/s
Channel(s) : 6 channels
Channel positions : Front: L C R, Side: L R, LFE
Sampling rate : 48.0 kHz
Frame rate : 31.250 FPS (1536 SPF)
Bit depth : 16 bits
Compression mode : Lossy
Stream size : 541 MiB (6%)
Language : English
Service kind : Complete Main
Default : Yes
Forced : No

Text #1
ID : 3
Format : UTF-8
Codec ID : S_TEXT/UTF8
Codec ID/Info : UTF-8 Plain Text
Duration : 1 h 56 min
Bit rate : 55 b/s
Count of elements : 1440
Stream size : 47.1 KiB (0%)
Title : srt
Language : English
Default : Yes
Forced : Yes

Text #2
ID : 4
Format : PGS
Muxing mode : zlib
Codec ID : S_HDMV/PGS
Codec ID/Info : Picture based subtitle format used on BDs/HD-DVDs
Duration : 1 h 56 min
Bit rate : 31.7 kb/s
Count of elements : 2880
Stream size : 26.4 MiB (0%)
Title : sup
Language : English
Default : No
Forced : No

Text #3
ID : 5
Format : PGS
Muxing mode : zlib
Codec ID : S_HDMV/PGS
Codec ID/Info : Picture based subtitle format used on BDs/HD-DVDs
Duration : 1 h 50 min
Bit rate : 25.3 kb/s
Count of elements : 1988
Stream size : 20.0 MiB (0%)
Title : sup
Language : German
Default : No
Forced : No

Text #4
ID : 6
Format : PGS
Muxing mode : zlib
Codec ID : S_HDMV/PGS
Codec ID/Info : Picture based subtitle format used on BDs/HD-DVDs
Duration : 1 h 35 min
Bit rate : 21.2 kb/s
Count of elements : 1402
Stream size : 14.5 MiB (0%)
Title : sup
Language : German
Default : No
Forced : No

Text #5
ID : 7
Format : PGS
Muxing mode : zlib
Codec ID : S_HDMV/PGS
Codec ID/Info : Picture based subtitle format used on BDs/HD-DVDs
Duration : 1 h 53 min
Bit rate : 39.3 kb/s
Count of elements : 2794
Stream size : 31.9 MiB (0%)
Title : sup HoH
Language : German
Default : No
Forced : No

Menu
00:00:00.000 : en:Chapter 1
00:07:10.041 : en:Chapter 2
00:14:44.208 : en:Chapter 3
00:25:16.583 : en:Chapter 4
00:34:40.208 : en:Chapter 5
00:42:23.666 : en:Chapter 6
00:55:23.500 : en:Chapter 7
01:02:14.625 : en:Chapter 8
01:11:52.041 : en:Chapter 9
01:28:04.458 : en:Chapter 10
01:40:50.083 : en:Chapter 11
01:51:53.208 : en:Chapter 12





The Young Karl Marx (2017)


The Young Karl Marx (2017)


The Young Karl Marx (2017)


The Young Karl Marx (2017)


The Young Karl Marx (2017)