Travel Ch. - Legendary Locations: Series 1 (2018)

Posted By: notbanned
720p (HD) / HDTV
Travel Ch. - Legendary Locations: Series 1 (2018)

Travel Ch. - Legendary Locations: Series 1 (2018)
HDTV | 1280x720 | .MP4/AVC @ 3432 Kbps | 8x~21min | 4.24 GiB
Audio: English AAC 160 kbps, 2 channels | Subs: English
Genre: Documentary

From the jungles of Mexico's Yucatan peninsula to the ruins of the Trojan battlefield in Turkey, Josh Gates weaves the tales and tells the secrets of the world's most legendary locations.
Part 1: Lost and Found
Josh Gates explores the stories behind millionaire Jim Thompson's disappearance in Malaysia, an ancient city's collapse in Cambodia and a celebration of beliefs surrounding death in Bolivia.

Part 2: Game of Bones and Unknowns
Josh explores the beauty of the spiritual realm. He investigates a German basilica said to house the bones of 11,000 virgins, a Japanese ice cave guarded by a dragon's spirit and a remote island where cats outnumber humans.

Part 3: Last Resorts
Josh Gates explores legendary places of protection, including a historic military fortress in Gibraltar, drug lord Pablo Escobar's secret Colombian hideaway and a floating kingdom on Peru's Lake Titicaca.

Part 4: Portals to Punishment
Josh Gates explores sites where the journey is the destination, including a visit to "The Death Road" in Bolivia and Turkey's G�bekli Tepe, which may contain the oldest known megaliths.

Part 5: Crystal Skull Obsession
Josh investigates the iconic mystery of the crystal skulls. He visits sites in Belize, Spain and Scotland where the legends are born from obsession.

Part 6: Places of Power
Josh explores three iconic monuments, including the majestic Statue of Liberty and one of the world's greatest architectural masterpieces – the Blue Mosque.

Part 7: Cults of Personality
Josh explores three locations where people connect with spirits and miracles, from a celebration honoring a mysterious American soldier on a remote Pacific island to portal to the dead in New Orleans.

Part 8: Secrets in Stone
Josh explores three legendary locations where stone labyrinths hide something incredible, including a vast city carved deep into a canyon in the Jordanian desert and a dark South Pacific cave once used as a kitchen by a cannibal tribe.

General
Complete name : Legendary.Locations.Series.1.1of8.Lost.and.Found.720p.mp4
Format : MPEG-4
Format profile : Base Media
Codec ID : isom (isom)
File size : 538 MiB
Duration : 21 min 1 s
Overall bit rate mode : Variable
Overall bit rate : 3 582 kb/s

Video
ID : 1
Format : AVC
Format/Info : Advanced Video Codec
Format profile : High@L4.1
Format settings, CABAC : Yes
Format settings, ReFrames : 4 frames
Codec ID : avc1
Codec ID/Info : Advanced Video Coding
Duration : 21 min 1 s
Bit rate : 3 432 kb/s
Maximum bit rate : 15.8 Mb/s
Width : 1 280 pixels
Height : 720 pixels
Display aspect ratio : 16:9
Frame rate mode : Constant
Frame rate : 29.970 (30000/1001) FPS
Color space : YUV
Chroma subsampling : 4:2:0
Bit depth : 8 bits
Scan type : Progressive
Bits/(Pixel*Frame) : 0.124
Stream size : 514 MiB (95%)
Encoding settings : cabac=1 / ref=1 / deblock=1:0:0 / analyse=0x3:0x113 / me=hex / subme=2 / psy=1 / psy_rd=1.00:0.00 / mixed_ref=0 / me_range=16 / chroma_me=1 / trellis=0 / 8x8dct=1 / cqm=0 / deadzone=21,11 / fast_pskip=1 / chroma_qp_offset=0 / threads=6 / lookahead_threads=2 / sliced_threads=0 / nr=0 / decimate=1 / interlaced=0 / bluray_compat=0 / constrained_intra=0 / bframes=3 / b_pyramid=2 / b_adapt=1 / b_bias=0 / direct=1 / weightb=1 / open_gop=0 / weightp=1 / keyint=300 / keyint_min=30 / scenecut=40 / intra_refresh=0 / rc_lookahead=10 / rc=abr / mbtree=1 / bitrate=3432 / ratetol=1.0 / qcomp=0.60 / qpmin=0 / qpmax=69 / qpstep=4 / vbv_maxrate=62500 / vbv_bufsize=78125 / nal_hrd=none / ip_ratio=1.40 / aq=1:1.00
Encoded date : UTC 2018-05-20 00:10:21
Tagged date : UTC 2018-05-20 10:26:21
Color range : Limited
Color primaries : BT.709
Transfer characteristics : BT.709
Matrix coefficients : BT.709

Audio
ID : 2
Format : AAC
Format/Info : Advanced Audio Codec
Format profile : LC
Codec ID : 40
Duration : 21 min 1 s
Bit rate mode : Variable
Bit rate : 160 kb/s
Maximum bit rate : 257 kb/s
Channel(s) : 2 channels
Channel positions : Front: L R
Sampling rate : 48.0 kHz
Frame rate : 46.875 FPS (1024 spf)
Compression mode : Lossy
Stream size : 24.1 MiB (4%)
Language : English
Encoded date : UTC 2018-05-20 10:26:19
Tagged date : UTC 2018-05-20 10:26:21

Text
ID : 3
Format : Timed Text
Codec ID : tx3g
Duration : 20 min 55 s
Bit rate mode : Variable
Bit rate : 115 b/s
Stream size : 17.6 KiB (0%)
Forced : No
Encoded date : UTC 2018-05-20 10:26:21
Tagged date : UTC 2018-05-20 10:26:21


Screenshots:

Travel Ch. - Legendary Locations: Series 1 (2018)

Travel Ch. - Legendary Locations: Series 1 (2018)

Travel Ch. - Legendary Locations: Series 1 (2018)

Travel Ch. - Legendary Locations: Series 1 (2018)