Lethal Weapon - Zwei stahlharte Profis (1987)

Posted By: Tavaz
1080p (FullHD) / BDRip IMDb
Lethal Weapon - Zwei stahlharte Profis (1987)

Lethal Weapon - Zwei stahlharte Profis (1987)
AVI | 1920x1080 | German | H264 @ 4000 kbps | AC-3 @ 640 kbps | 1 h 49 min | 3.53 GiB
Genre: Action, Adventure, Comedy, Crime, Thriller

Martin Riggs, der harte Mann, und Roger Murtaugh, der besonnene Polizist, arbeiten beide in L.A., kämpften für eine Spezialeinheit in Vietnam und hassen es mit einem Partner zusammen arbeiten zu müssen. Doch das Schicksal führt beide zusammen. Als Partner müssen sie einen gigantischen Heroinschmuggel, hinter welchem sich eine Gruppe ehemaliger CIA-Söldner verbirgt, aufdecken.

Lethal Weapon 1- Zwei stahlharte Profis- 1987- HD.avi (3.5 GB)



General
Complete name : ./Lethal Weapon 1- Zwei stahlharte Profis- 1987- HD.avi
Format : AVI
Format/Info : Audio Video Interleave
Format profile : OpenDML
File size : 3.53 GiB
Duration : 1 h 49 min
Overall bit rate : 4 606 kb/s
Movie name : Lethal Weapon 1- Zwei stahlharte Profis- 1987
Writing application : Lavf56.9.100

Video
ID : 0
Format : AVC
Format/Info : Advanced Video Codec
Format profile : Baseline@L4
Format settings : 1 Ref Frames
Format settings, CABAC : No
Format settings, RefFrames : 1 frame
Codec ID : H264
Duration : 1 h 49 min
Bit rate : 4 000 kb/s
Width : 1 920 pixels
Height : 1 080 pixels
Display aspect ratio : 16:9
Frame rate : 23.976 (24000/1001) FPS
Color space : YUV
Chroma subsampling : 4:2:0
Bit depth : 8 bits
Scan type : Progressive
Bits/(Pixel*Frame) : 0.080
Stream size : 3.03 GiB (86%)
Writing library : x264 core 142
Encoding settings : cabac=0 / ref=1 / deblock=1:0:0 / analyse=0x1:0x111 / me=umh / subme=6 / psy=0 / mixed_ref=0 / me_range=12 / chroma_me=1 / trellis=0 / 8x8dct=0 / cqm=0 / deadzone=21,11 / fast_pskip=0 / chroma_qp_offset=0 / threads=2 / lookahead_threads=1 / sliced_threads=0 / nr=0 / decimate=1 / interlaced=0 / bluray_compat=0 / constrained_intra=0 / bframes=0 / weightp=0 / keyint=24 / keyint_min=13 / scenecut=40 / intra_refresh=0 / rc=abr / mbtree=0 / bitrate=4000 / ratetol=1.0 / qcomp=0.60 / qpmin=0 / qpmax=69 / qpstep=4 / ip_ratio=1.40 / aq=1:1.00
Color range : Limited
Color primaries : BT.709
Transfer characteristics : BT.709
Matrix coefficients : BT.709

Audio
ID : 1
Format : AC-3
Format/Info : Audio Coding 3
Format settings, Endianness : Big
Codec ID : 2000
Duration : 1 h 49 min
Bit rate mode : Constant
Bit rate : 640 kb/s
Channel(s) : 6 channels
Channel positions : Front: L C R, Side: L R, LFE
Sampling rate : 48.0 kHz
Frame rate : 31.250 FPS (1536 SPF)
Bit depth : 16 bits
Compression mode : Lossy
Stream size : 502 MiB (14%)
Alignment : Aligned on interleaves
Interleave, duration : 32 ms (0.77 video frame)
Service kind : Complete Main





Lethal Weapon - Zwei stahlharte Profis (1987)


Lethal Weapon - Zwei stahlharte Profis (1987)


Lethal Weapon - Zwei stahlharte Profis (1987)


Lethal Weapon - Zwei stahlharte Profis (1987)


Lethal Weapon - Zwei stahlharte Profis (1987)