Milada (2017)

Posted By: JohnSmith
SD / WEB-DL IMDb
Milada (2017)

Milada (2017)
HDRip | AVI / XviD@1134 kb/s | 720x384 | 2h 3mn | 1.32 GB | English: AC3, 384 kb/s (6 ch)
Genre: Biography | Drama | History

Milada, a new movie about the life of Horáková, has been in the works for a few years, spearheaded by writer-director David Mrnka, a Czech-born producer who worked in Los Angeles for the past decade but returned to Prague to make the film. It will mark his directorial debut.




General
Complete name : G:\Milada.2017.HDRip.XviD.AC3-EVO\Milada.2017.HDRip.XviD.AC3-EVO.avi
Format : AVI
Format/Info : Audio Video Interleave
File size : 1.32 GiB
Duration : 2 h 3 min
Overall bit rate : 1 527 kb/s
Writing library : VirtualDub build 32593/release

Video
ID : 0
Format : MPEG-4 Visual
Format profile : Advanced Simple@L5
Format settings, BVOP : 2
Format settings, QPel : No
Format settings, GMC : No warppoints
Format settings, Matrix : Default (H.263)
Muxing mode : Packed bitstream
Codec ID : XVID
Codec ID/Hint : XviD
Duration : 2 h 3 min
Bit rate : 1 134 kb/s
Width : 720 pixels
Height : 384 pixels
Display aspect ratio : 1.85:1
Frame rate : 24.000 FPS
Color space : YUV
Chroma subsampling : 4:2:0
Bit depth : 8 bits
Scan type : Progressive
Compression mode : Lossy
Bits/(Pixel*Frame) : 0.171
Stream size : 1 005 MiB (74%)
Writing library : XviD 66

Audio
ID : 1
Format : AC-3
Format/Info : Audio Coding 3
Format settings, Endianness : Big
Codec ID : 2000
Duration : 2 h 3 min
Bit rate mode : Constant
Bit rate : 384 kb/s
Channel(s) : 6 channels
Channel positions : Front: L C R, Side: L R, LFE
Sampling rate : 48.0 kHz
Frame rate : 31.250 FPS (1536 spf)
Bit depth : 16 bits
Compression mode : Lossy
Stream size : 340 MiB (25%)
Alignment : Aligned on interleaves
Interleave, duration : 42 ms (1.00 video frame)
Interleave, preload duratio : 512 ms
Service kind : Complete Main




Screenshots

Milada (2017)

Milada (2017)

Milada (2017)