The Mind Of A Chef (Season 6) (2017)

Posted By: TestTickles
1080p (FullHD) / WEBRip IMDb
The Mind Of A Chef (Season 6) (2017)

The Mind Of A Chef (Season 6) (2017)
Web rip | MP4: Main@L3.1 (1280 x 720, 1000 Kbps) | Audio: MP3 (48.0 Kbps) | 23 min | English | 174 mb, 188mb, 168 mb, 176 mb, 245 mb, 209 mb, 190 mb, 178 mb
Genre: documentary, food, culinary

The Mind Of A Chef is a documentary series presented by Anthony Bourdain as they explore different chefs in the world of restaurants and culintary arts. In Season 6, the focus is on chef Danny Bowien, who explains his Oklahoma roots as an adopted child before moving to San Francisco and starting a restaurant within a restaurant, where attention towards him went absolutely bonkers. He also briefly speaks about how Hamburger Helper changed his world. This was originally broadcasted on Facebook Watch.

Note: Subtitles are burned in when dialogue is non-English.

S06E01: Genesis
The Mind Of A Chef (Season 6) (2017)

General
Complete name : C:\My Documents\AAA Videos\Mind Of A Chef (Season 6)\Mind Of A Chef S06E01\Mind Of A Chef S06E01.mp4
Format : MPEG-4
Format profile : Base Media
Codec ID : isom
File size : 174 MiB
Duration : 23mn 2s
Overall bit rate : 1 054 Kbps
Movie name : 441024142959711
Writing application : Lavf57.56.100

Video
ID : 1
Format : AVC
Format/Info : Advanced Video Codec
Format profile : Main@L3.1
Format settings, CABAC : Yes
Format settings, ReFrames : 5 frames
Codec ID : avc1
Codec ID/Info : Advanced Video Coding
Duration : 23mn 2s
Bit rate : 1 001 Kbps
Width : 1 280 pixels
Height : 720 pixels
Display aspect ratio : 16:9
Frame rate mode : Variable
Frame rate : 23.976 fps
Minimum frame rate : 23.974 fps
Maximum frame rate : 23.981 fps
Color space : YUV
Chroma subsampling : 4:2:0
Bit depth : 8 bits
Scan type : Progressive
Bits/(Pixel*Frame) : 0.045
Stream size : 165 MiB (95%)
Writing library : x264 core 148
Encoding settings : cabac=1 / ref=5 / deblock=1:0:0 / analyse=0x1:0x111 / me=hex / subme=8 / psy=0 / mixed_ref=1 / me_range=16 / chroma_me=1 / trellis=2 / 8x8dct=0 / cqm=0 / deadzone=21,11 / fast_pskip=1 / chroma_qp_offset=0 / threads=22 / lookahead_threads=3 / sliced_threads=0 / nr=0 / decimate=1 / interlaced=0 / bluray_compat=0 / constrained_intra=0 / bframes=3 / b_pyramid=2 / b_adapt=1 / b_bias=0 / direct=3 / weightb=1 / open_gop=0 / weightp=2 / keyint=48 / keyint_min=25 / scenecut=0 / intra_refresh=0 / rc_lookahead=48 / rc=crf / mbtree=1 / crf=27.0 / qcomp=0.60 / qpmin=0 / qpmax=69 / qpstep=4 / vbv_maxrate=7200 / vbv_bufsize=14400 / crf_max=0.0 / nal_hrd=none / filler=0 / ip_ratio=1.40 / aq=2:1.00
Color range : Limited
Color primaries : BT.709
Transfer characteristics : BT.709
Matrix coefficients : BT.709

Audio
ID : 2
Format : AAC
Format/Info : Advanced Audio Codec
Format profile : HE-AAC / LC
Codec ID : 40
Duration : 23mn 2s
Duration_LastFrame : 1ms
Bit rate mode : Constant
Bit rate : 48.0 Kbps
Channel(s) : 2 channels
Channel positions : Front: L R
Sampling rate : 48.0 KHz / 24.0 KHz
Compression mode : Lossy
Stream size : 7.91 MiB (5%)
Language : English


S06E02: Threshold
The Mind Of A Chef (Season 6) (2017)

General
Complete name : C:\My Documents\AAA Videos\Mind Of A Chef (Season 6)\Mind Of A Chef S06E02\Mind Of A Chef S06E02.mp4
Format : MPEG-4
Format profile : Base Media
Codec ID : isom
File size : 188 MiB
Duration : 25mn 16s
Overall bit rate : 1 038 Kbps
Movie name : 443654352696690
Writing application : Lavf57.56.100

Video
ID : 1
Format : AVC
Format/Info : Advanced Video Codec
Format profile : Main@L3.1
Format settings, CABAC : Yes
Format settings, ReFrames : 5 frames
Codec ID : avc1
Codec ID/Info : Advanced Video Coding
Duration : 25mn 16s
Bit rate : 984 Kbps
Width : 1 280 pixels
Height : 720 pixels
Display aspect ratio : 16:9
Frame rate mode : Variable
Frame rate : 23.976 fps
Minimum frame rate : 23.974 fps
Maximum frame rate : 23.981 fps
Color space : YUV
Chroma subsampling : 4:2:0
Bit depth : 8 bits
Scan type : Progressive
Bits/(Pixel*Frame) : 0.045
Stream size : 178 MiB (95%)
Writing library : x264 core 148
Encoding settings : cabac=1 / ref=5 / deblock=1:0:0 / analyse=0x1:0x111 / me=hex / subme=8 / psy=0 / mixed_ref=1 / me_range=16 / chroma_me=1 / trellis=2 / 8x8dct=0 / cqm=0 / deadzone=21,11 / fast_pskip=1 / chroma_qp_offset=0 / threads=22 / lookahead_threads=3 / sliced_threads=0 / nr=0 / decimate=1 / interlaced=0 / bluray_compat=0 / constrained_intra=0 / bframes=3 / b_pyramid=2 / b_adapt=1 / b_bias=0 / direct=3 / weightb=1 / open_gop=0 / weightp=2 / keyint=48 / keyint_min=25 / scenecut=0 / intra_refresh=0 / rc_lookahead=48 / rc=crf / mbtree=1 / crf=27.0 / qcomp=0.60 / qpmin=0 / qpmax=69 / qpstep=4 / vbv_maxrate=7200 / vbv_bufsize=14400 / crf_max=0.0 / nal_hrd=none / filler=0 / ip_ratio=1.40 / aq=2:1.00
Color range : Limited
Color primaries : BT.709
Transfer characteristics : BT.709
Matrix coefficients : BT.709

Audio
ID : 2
Format : AAC
Format/Info : Advanced Audio Codec
Format profile : HE-AAC / LC
Codec ID : 40
Duration : 25mn 16s
Duration_LastFrame : 1ms
Bit rate mode : Constant
Bit rate : 48.0 Kbps
Channel(s) : 2 channels
Channel positions : Front: L R
Sampling rate : 48.0 KHz / 24.0 KHz
Compression mode : Lossy
Stream size : 8.68 MiB (5%)
Language : English


S06E03: Mentor
The Mind Of A Chef (Season 6) (2017)

General
Complete name : C:\My Documents\AAA Videos\Mind Of A Chef (Season 6)\Mind Of A Chef S06E03.mp4
Format : MPEG-4
Format profile : Base Media
Codec ID : isom
File size : 168 MiB
Duration : 23mn 3s
Overall bit rate : 1 017 Kbps
Movie name : 443579846037474
Writing application : Lavf57.56.100

Video
ID : 1
Format : AVC
Format/Info : Advanced Video Codec
Format profile : Main@L3.1
Format settings, CABAC : Yes
Format settings, ReFrames : 5 frames
Codec ID : avc1
Codec ID/Info : Advanced Video Coding
Duration : 23mn 3s
Bit rate : 963 Kbps
Width : 1 280 pixels
Height : 720 pixels
Display aspect ratio : 16:9
Frame rate mode : Variable
Frame rate : 23.976 fps
Minimum frame rate : 23.974 fps
Maximum frame rate : 23.981 fps
Color space : YUV
Chroma subsampling : 4:2:0
Bit depth : 8 bits
Scan type : Progressive
Bits/(Pixel*Frame) : 0.044
Stream size : 159 MiB (95%)
Writing library : x264 core 148
Encoding settings : cabac=1 / ref=5 / deblock=1:0:0 / analyse=0x1:0x111 / me=hex / subme=8 / psy=0 / mixed_ref=1 / me_range=16 / chroma_me=1 / trellis=2 / 8x8dct=0 / cqm=0 / deadzone=21,11 / fast_pskip=1 / chroma_qp_offset=0 / threads=22 / lookahead_threads=3 / sliced_threads=0 / nr=0 / decimate=1 / interlaced=0 / bluray_compat=0 / constrained_intra=0 / bframes=3 / b_pyramid=2 / b_adapt=1 / b_bias=0 / direct=3 / weightb=1 / open_gop=0 / weightp=2 / keyint=48 / keyint_min=25 / scenecut=0 / intra_refresh=0 / rc_lookahead=48 / rc=crf / mbtree=1 / crf=27.0 / qcomp=0.60 / qpmin=0 / qpmax=69 / qpstep=4 / vbv_maxrate=7200 / vbv_bufsize=14400 / crf_max=0.0 / nal_hrd=none / filler=0 / ip_ratio=1.40 / aq=2:1.00
Color range : Limited
Color primaries : BT.709
Transfer characteristics : BT.709
Matrix coefficients : BT.709

Audio
ID : 2
Format : AAC
Format/Info : Advanced Audio Codec
Format profile : HE-AAC / LC
Codec ID : 40
Duration : 23mn 3s
Duration_LastFrame : 1ms
Bit rate mode : Constant
Bit rate : 48.0 Kbps
Channel(s) : 2 channels
Channel positions : Front: L R
Sampling rate : 48.0 KHz / 24.0 KHz
Compression mode : Lossy
Stream size : 7.92 MiB (5%)
Language : English


S06E04: Family
The Mind Of A Chef (Season 6) (2017)

General
Complete name : C:\My Documents\AAA Videos\Mind Of A Chef (Season 6)\Mind Of A Chef S06E04.mp4
Format : MPEG-4
Format profile : Base Media
Codec ID : isom
File size : 176 MiB
Duration : 23mn 20s
Overall bit rate : 1 056 Kbps
Movie name : 444482222613903
Writing application : Lavf57.56.100

Video
ID : 1
Format : AVC
Format/Info : Advanced Video Codec
Format profile : Main@L3.1
Format settings, CABAC : Yes
Format settings, ReFrames : 5 frames
Codec ID : avc1
Codec ID/Info : Advanced Video Coding
Duration : 23mn 20s
Bit rate : 1 002 Kbps
Width : 1 280 pixels
Height : 720 pixels
Display aspect ratio : 16:9
Frame rate mode : Variable
Frame rate : 23.976 fps
Minimum frame rate : 23.974 fps
Maximum frame rate : 23.981 fps
Color space : YUV
Chroma subsampling : 4:2:0
Bit depth : 8 bits
Scan type : Progressive
Bits/(Pixel*Frame) : 0.045
Stream size : 167 MiB (95%)
Writing library : x264 core 148
Encoding settings : cabac=1 / ref=5 / deblock=1:0:0 / analyse=0x1:0x111 / me=hex / subme=8 / psy=0 / mixed_ref=1 / me_range=16 / chroma_me=1 / trellis=2 / 8x8dct=0 / cqm=0 / deadzone=21,11 / fast_pskip=1 / chroma_qp_offset=0 / threads=22 / lookahead_threads=3 / sliced_threads=0 / nr=0 / decimate=1 / interlaced=0 / bluray_compat=0 / constrained_intra=0 / bframes=3 / b_pyramid=2 / b_adapt=1 / b_bias=0 / direct=3 / weightb=1 / open_gop=0 / weightp=2 / keyint=48 / keyint_min=25 / scenecut=0 / intra_refresh=0 / rc_lookahead=48 / rc=crf / mbtree=1 / crf=27.0 / qcomp=0.60 / qpmin=0 / qpmax=69 / qpstep=4 / vbv_maxrate=7200 / vbv_bufsize=14400 / crf_max=0.0 / nal_hrd=none / filler=0 / ip_ratio=1.40 / aq=2:1.00
Color range : Limited
Color primaries : BT.709
Transfer characteristics : BT.709
Matrix coefficients : BT.709

Audio
ID : 2
Format : AAC
Format/Info : Advanced Audio Codec
Format profile : HE-AAC / LC
Codec ID : 40
Duration : 23mn 20s
Duration_LastFrame : 1ms
Bit rate mode : Constant
Bit rate : 48.0 Kbps
Channel(s) : 2 channels
Channel positions : Front: L R
Sampling rate : 48.0 KHz / 24.0 KHz
Compression mode : Lossy
Stream size : 8.01 MiB (5%)
Language : English


S06E05: Risk
The Mind Of A Chef (Season 6) (2017)

General
Complete name : C:\My Documents\AAA Videos\Mind Of A Chef (Season 6)\Mind Of A Chef S06E05.mp4
Format : MPEG-4
Format profile : Base Media
Codec ID : isom
File size : 244 MiB
Duration : 23mn 31s
Overall bit rate : 1 451 Kbps
Movie name : 446656695729789
Writing application : Lavf57.56.100

Video
ID : 1
Format : AVC
Format/Info : Advanced Video Codec
Format profile : Main@L3.1
Format settings, CABAC : Yes
Format settings, ReFrames : 5 frames
Codec ID : avc1
Codec ID/Info : Advanced Video Coding
Duration : 23mn 30s
Bit rate : 1 398 Kbps
Width : 1 280 pixels
Height : 720 pixels
Display aspect ratio : 16:9
Frame rate mode : Variable
Frame rate : 23.976 fps
Minimum frame rate : 23.974 fps
Maximum frame rate : 23.981 fps
Color space : YUV
Chroma subsampling : 4:2:0
Bit depth : 8 bits
Scan type : Progressive
Bits/(Pixel*Frame) : 0.063
Stream size : 235 MiB (96%)
Writing library : x264 core 148
Encoding settings : cabac=1 / ref=5 / deblock=1:0:0 / analyse=0x1:0x111 / me=hex / subme=8 / psy=0 / mixed_ref=1 / me_range=16 / chroma_me=1 / trellis=2 / 8x8dct=0 / cqm=0 / deadzone=21,11 / fast_pskip=1 / chroma_qp_offset=0 / threads=22 / lookahead_threads=3 / sliced_threads=0 / nr=0 / decimate=1 / interlaced=0 / bluray_compat=0 / constrained_intra=0 / bframes=3 / b_pyramid=2 / b_adapt=1 / b_bias=0 / direct=3 / weightb=1 / open_gop=0 / weightp=2 / keyint=48 / keyint_min=25 / scenecut=0 / intra_refresh=0 / rc_lookahead=48 / rc=crf / mbtree=1 / crf=26.0 / qcomp=0.60 / qpmin=0 / qpmax=69 / qpstep=4 / vbv_maxrate=7200 / vbv_bufsize=14400 / crf_max=0.0 / nal_hrd=none / filler=0 / ip_ratio=1.40 / aq=2:1.00
Color range : Limited
Color primaries : BT.709
Transfer characteristics : BT.709
Matrix coefficients : BT.709

Audio
ID : 2
Format : AAC
Format/Info : Advanced Audio Codec
Format profile : HE-AAC / LC
Codec ID : 40
Duration : 23mn 31s
Duration_LastFrame : 1ms
Bit rate mode : Constant
Bit rate : 48.0 Kbps
Channel(s) : 2 channels
Channel positions : Front: L R
Sampling rate : 48.0 KHz / 24.0 KHz
Compression mode : Lossy
Stream size : 8.07 MiB (3%)
Language : English


S06E06: Unexpected
The Mind Of A Chef (Season 6) (2017)

General
Complete name : C:\My Documents\AAA Videos\Mind Of A Chef (Season 6)\Mind Of A Chef S06E06.mp4
Format : MPEG-4
Format profile : Base Media
Codec ID : isom
File size : 209 MiB
Duration : 23mn 30s
Overall bit rate : 1 241 Kbps
Movie name : 449600425435416
Writing application : Lavf56.40.101

Video
ID : 1
Format : AVC
Format/Info : Advanced Video Codec
Format profile : High@L3.1
Format settings, CABAC : Yes
Format settings, ReFrames : 5 frames
Codec ID : avc1
Codec ID/Info : Advanced Video Coding
Duration : 23mn 30s
Bit rate : 1 187 Kbps
Width : 1 280 pixels
Height : 720 pixels
Display aspect ratio : 16:9
Frame rate mode : Variable
Frame rate : 23.976 fps
Minimum frame rate : 23.974 fps
Maximum frame rate : 23.981 fps
Color space : YUV
Chroma subsampling : 4:2:0
Bit depth : 8 bits
Scan type : Progressive
Bits/(Pixel*Frame) : 0.054
Stream size : 200 MiB (96%)
Writing library : x264 core 148
Encoding settings : cabac=1 / ref=5 / deblock=1:0:0 / analyse=0x3:0x113 / me=hex / subme=6 / psy=0 / mixed_ref=1 / me_range=16 / chroma_me=1 / trellis=1 / 8x8dct=1 / cqm=0 / deadzone=21,11 / fast_pskip=1 / chroma_qp_offset=0 / threads=22 / lookahead_threads=3 / sliced_threads=0 / nr=0 / decimate=1 / interlaced=0 / bluray_compat=0 / constrained_intra=0 / bframes=3 / b_pyramid=2 / b_adapt=1 / b_bias=0 / direct=1 / weightb=1 / open_gop=0 / weightp=1 / keyint=90 / keyint_min=9 / scenecut=40 / intra_refresh=0 / rc_lookahead=30 / rc=crf / mbtree=1 / crf=27.0 / qcomp=0.60 / qpmin=0 / qpmax=69 / qpstep=4 / vbv_maxrate=2500 / vbv_bufsize=5000 / crf_max=0.0 / nal_hrd=none / filler=0 / ip_ratio=1.40 / aq=2:1.00

Audio
ID : 2
Format : AAC
Format/Info : Advanced Audio Codec
Format profile : HE-AACv2 / HE-AAC / LC
Codec ID : 40
Duration : 23mn 30s
Duration_LastFrame : 83ms
Bit rate mode : Constant
Bit rate : 48.0 Kbps
Channel(s) : 2 channels / 2 channels / 2 channels
Channel positions : Front: L R / Front: L R / Front: L R
Sampling rate : 48.0 KHz / 48.0 KHz / 24.0 KHz
Compression mode : Lossy
Stream size : 8.07 MiB (4%)
Language : English


S06E07: Classics
The Mind Of A Chef (Season 6) (2017)

General
Complete name : C:\My Documents\AAA Videos\Mind Of A Chef (Season 6)\Mind Of A Chef S06E07.mp4
Format : MPEG-4
Format profile : Base Media
Codec ID : isom
File size : 190 MiB
Duration : 23mn 23s
Overall bit rate : 1 134 Kbps
Movie name : 450064785388980
Writing application : Lavf56.40.101

Video
ID : 1
Format : AVC
Format/Info : Advanced Video Codec
Format profile : High@L3.1
Format settings, CABAC : Yes
Format settings, ReFrames : 5 frames
Codec ID : avc1
Codec ID/Info : Advanced Video Coding
Duration : 23mn 22s
Bit rate : 1 081 Kbps
Width : 1 280 pixels
Height : 720 pixels
Display aspect ratio : 16:9
Frame rate mode : Variable
Frame rate : 23.976 fps
Minimum frame rate : 23.974 fps
Maximum frame rate : 23.981 fps
Color space : YUV
Chroma subsampling : 4:2:0
Bit depth : 8 bits
Scan type : Progressive
Bits/(Pixel*Frame) : 0.049
Stream size : 181 MiB (95%)
Writing library : x264 core 148
Encoding settings : cabac=1 / ref=5 / deblock=1:0:0 / analyse=0x3:0x113 / me=hex / subme=6 / psy=0 / mixed_ref=1 / me_range=16 / chroma_me=1 / trellis=1 / 8x8dct=1 / cqm=0 / deadzone=21,11 / fast_pskip=1 / chroma_qp_offset=0 / threads=22 / lookahead_threads=3 / sliced_threads=0 / nr=0 / decimate=1 / interlaced=0 / bluray_compat=0 / constrained_intra=0 / bframes=3 / b_pyramid=2 / b_adapt=1 / b_bias=0 / direct=1 / weightb=1 / open_gop=0 / weightp=1 / keyint=90 / keyint_min=9 / scenecut=40 / intra_refresh=0 / rc_lookahead=30 / rc=crf / mbtree=1 / crf=27.0 / qcomp=0.60 / qpmin=0 / qpmax=69 / qpstep=4 / vbv_maxrate=2500 / vbv_bufsize=5000 / crf_max=0.0 / nal_hrd=none / filler=0 / ip_ratio=1.40 / aq=2:1.00

Audio
ID : 2
Format : AAC
Format/Info : Advanced Audio Codec
Format profile : HE-AAC / LC
Codec ID : 40
Duration : 23mn 23s
Duration_LastFrame : 83ms
Bit rate mode : Constant
Bit rate : 48.0 Kbps
Channel(s) : 2 channels
Channel positions : Front: L R
Sampling rate : 48.0 KHz / 24.0 KHz
Compression mode : Lossy
Stream size : 8.03 MiB (4%)
Language : English


S06E08: Multiverse
The Mind Of A Chef (Season 6) (2017)

The Mind Of A Chef (Season 6) (2017)

General
Complete name : C:\My Documents\AAA Videos\Mind Of A Chef (Season 6)\Mind Of A Chef S06E08.mp4
Format : MPEG-4
Format profile : Base Media
Codec ID : isom
File size : 177 MiB
Duration : 23mn 15s
Overall bit rate : 1 062 Kbps
Movie name : 453252475070211
Writing application : Lavf57.56.100

Video
ID : 1
Format : AVC
Format/Info : Advanced Video Codec
Format profile : Main@L3.1
Format settings, CABAC : Yes
Format settings, ReFrames : 5 frames
Codec ID : avc1
Codec ID/Info : Advanced Video Coding
Duration : 23mn 14s
Bit rate : 1 009 Kbps
Width : 1 280 pixels
Height : 720 pixels
Display aspect ratio : 16:9
Frame rate mode : Variable
Frame rate : 23.976 fps
Minimum frame rate : 23.974 fps
Maximum frame rate : 23.981 fps
Color space : YUV
Chroma subsampling : 4:2:0
Bit depth : 8 bits
Scan type : Progressive
Bits/(Pixel*Frame) : 0.046
Stream size : 168 MiB (95%)
Writing library : x264 core 148
Encoding settings : cabac=1 / ref=5 / deblock=1:0:0 / analyse=0x1:0x111 / me=hex / subme=8 / psy=0 / mixed_ref=1 / me_range=16 / chroma_me=1 / trellis=2 / 8x8dct=0 / cqm=0 / deadzone=21,11 / fast_pskip=1 / chroma_qp_offset=0 / threads=22 / lookahead_threads=3 / sliced_threads=0 / nr=0 / decimate=1 / interlaced=0 / bluray_compat=0 / constrained_intra=0 / bframes=3 / b_pyramid=2 / b_adapt=1 / b_bias=0 / direct=3 / weightb=1 / open_gop=0 / weightp=2 / keyint=48 / keyint_min=25 / scenecut=0 / intra_refresh=0 / rc_lookahead=48 / rc=crf / mbtree=1 / crf=27.0 / qcomp=0.60 / qpmin=0 / qpmax=69 / qpstep=4 / vbv_maxrate=7200 / vbv_bufsize=14400 / crf_max=0.0 / nal_hrd=none / filler=0 / ip_ratio=1.40 / aq=2:1.00
Color range : Limited
Color primaries : BT.709
Transfer characteristics : BT.709
Matrix coefficients : BT.709

Audio
ID : 2
Format : AAC
Format/Info : Advanced Audio Codec
Format profile : HE-AAC / LC
Codec ID : 40
Duration : 23mn 15s
Bit rate mode : Constant
Bit rate : 48.0 Kbps
Channel(s) : 2 channels
Channel positions : Front: L R
Sampling rate : 48.0 KHz / 24.0 KHz
Compression mode : Lossy
Stream size : 7.98 MiB (5%)
Language : English