Movie Movie (1978)

Posted By: Tavaz
SD / HDTV IMDb
Movie Movie (1978)

Movie Movie (1978)
HDTV | AVI | 720x400 | English | MP4V-ES @ 1599 kbps | MPEG Audio @ 192 kbps | 1 h 43 min | 1.31 GiB
Genre: Comedy

Three movie genres of the 1930s, boxing films, WWI aviation dramas, and backstage Broadway musicals, are satirized using the same cast.

Movie.Movie.1978.HDRip.XviD.MP3.avi (1.3 GB)



General
Complete name : ./Movie.Movie.1978.HDRip.XviD.MP3.avi
Format : AVI
Format/Info : Audio Video Interleave
Format profile : OpenDML
File size : 1.31 GiB
Duration : 1 h 43 min
Overall bit rate : 1 806 kb/s
Movie name : RARBG.COM - Movie.Movie.1978.BRRip.XviD.MP3-RARBG
Writing application : Lavf56.40.101
Comment : RARBG.COM - Movie.Movie.1978.BRRip.XviD.MP3-RARBG

Video
ID : 0
Format : MPEG-4 Visual
Format profile : Simple@L5
Format settings, BVOP : No
Format settings, QPel : No
Format settings, GMC : No warppoints
Format settings, Matrix : Default (H.263)
Codec ID : XVID
Codec ID/Hint : XviD
Duration : 1 h 43 min
Bit rate : 1 599 kb/s
Width : 720 pixels
Height : 400 pixels
Display aspect ratio : 16:9
Frame rate : 23.976 (24000/1001) FPS
Color space : YUV
Chroma subsampling : 4:2:0
Bit depth : 8 bits
Scan type : Progressive
Compression mode : Lossy
Bits/(Pixel*Frame) : 0.232
Stream size : 1.16 GiB (89%)
Title : RARBG.COM - Movie.Movie.1978.BRRip.XviD.MP3-RARBG
Writing library : Lavc56.60.100

Audio
ID : 1
Format : MPEG Audio
Format version : Version 1
Format profile : Layer 3
Format settings : Joint stereo / MS Stereo
Mode : Joint stereo
Mode extension : MS Stereo
Codec ID : 55
Codec ID/Hint : MP3
Duration : 1 h 43 min
Bit rate mode : Constant
Bit rate : 192 kb/s
Channel(s) : 2 channels
Sampling rate : 48.0 kHz
Compression mode : Lossy
Stream size : 143 MiB (11%)
Alignment : Aligned on interleaves
Interleave, duration : 24 ms (0.58 video frame)
Interleave, preload duration : 24 ms
Title : RARBG.COM - Movie.Movie.1978.BRRip.XviD.MP3-RARBG
Writing library : LAME3.99.5





Movie Movie (1978)


Movie Movie (1978)


Movie Movie (1978)


Movie Movie (1978)


Movie Movie (1978)