Windfall Films - My Floating Home: Series 2 (2017)

Posted By: notbanned
720p (HD) / HDTV
Windfall Films - My Floating Home: Series 2 (2017)

Windfall Films - My Floating Home: Series 2 (2017)
HDTV | 1280x720 | .MP4/AVC @ 2722 Kbps | 7x~20min | 2.93 GiB
Audio: English AAC 160 kbps, 2 channels | Subs: English
Genre: Documentary

“My Floating Home” follows the adventures of people who are building the ultimate dream homes – stunning ‘aquatic homes’ that float on water. Traditional waterfront properties are hard to come by and can be very expensive. Some families are now taking the ultimate plunge and commissioning a floating home instead. Moored in marinas or along riverbanks.
Part 1: Waterside Family Home
The Baris family live in the Netherlands, in the heart of canal country with dreams of building a floating home on the local waterways. Their ambitious design includes floor to ceiling windows along the length of the first level, and a fun underwater space on the ground level with a den and bedrooms for the kids. Narrow locks, shallow water and low bridges threaten the new build every step of the way, but the home finally makes it to its’ new mooring site and the family begin a new idyllic life on the water.

Part 2: Wild View Cottage
Linda’s dream is to build a floating home and moor it at Maple Bay Marina on Vancouver Island, positioned so it overlooks her favorite nature reserve–Chisolm Island. When the extra weight of the glass requires complex engineering to stop the walls from collapsing, the building process proves to be more complicated that she had originally expected. In the end, her spectacular floating home nests on the emerald waters of the bay, offering 360 degree views of the surrounding nature.

Part 3: City Water Living
Valentin and Daria’s dream is to escape their cramped city apartment with their young son, and live on the Thames in their own floating home, right under the iconic Tower Bridge. They create their own design converting an old barge into a three tiered contemporary floating apartment, but are met with the challenge of moving their new finished home back to London. After a hair raising journey, they finally make it to England and their eye catching floating apartment becomes a new attraction next to Tower Bridge.

Part 4: High Tech River House
Lee and Justine want to transform an old steel hull boat into a 2 story floating house on the River Medway near Rochester, England. With only 16 weeks to build, the crew must battle bad weather and the enormous daily tide that lifts and drops the boat, twice a day. To make matters worse, when Justine’s huge diesel powered oven needs to be lifted on board, the weight of the oven causes the house to tilt, threatening it to collapse. The result is an amazing house with sleek modern interiors and upper decks that provide the perfect platform to soak in spectacular views of the river.

Part 5: Family River House
Karen and her boyfriend Tom have decided to build a houseboat on England’s Grand Union Canal in the tranquil ambience of the stunning Colne Valley. They plan out their dream houseboat complete with modern bespoke interiors, endless waterside views and a sumptuous deck, but when space becomes an issue for the build team; will they have to compromise on the design?

Part 6: Idyllic River Home
Fed up with her cramped city apartment, sportswear manager Marsha sets out to build a spacious two story floating home on the idyllic Multnomah Channel near Portland, Oregon with an open living space and unobscured views of the river. Father and daughter build team; Ryan and Aime have never built a floating house before, and are doubly challenged when they’re hit by an onslaught of snow, ice and epic flooding. Despite severe delays due to the weather and last minute changes, the dramatic ten month long build is worth the effort–Marsha ends up the proud owner of a stunning home with spacious interiors and fantastic views.

Part 7: Futuristic Floating Home
After 30 years living on River Itchen in Southampton, Gerald sets out to design and build an extraordinary new home–a futuristic fiberglass house, made on his “doorstep” at Shamrock Quay Marina, designed and built by his 27 year old son, Aidan. The home is made from scratch by carefully building up layers of fiberglass to create two hollow hull sections. Gerald visits the job site often, adding details to the design and keeping the pressure on his son. From underfloor heating to music speakers in his shower.

General
Complete name : My.Floating.Home.Series.2.7of7.Futuristic.Floating.Home.720p.mp4
Format : MPEG-4
Format profile : Base Media / Version 2
Codec ID : mp42 (mp42/isom/avc1)
File size : 423 MiB
Duration : 20 min 35 s
Overall bit rate mode : Variable
Overall bit rate : 2 871 kb/s

Video
ID : 1
Format : AVC
Format/Info : Advanced Video Codec
Format profile : High@L4.1
Format settings, CABAC : Yes
Format settings, ReFrames : 4 frames
Codec ID : avc1
Codec ID/Info : Advanced Video Coding
Duration : 20 min 35 s
Bit rate : 2 722 kb/s
Width : 1 280 pixels
Height : 720 pixels
Display aspect ratio : 16:9
Frame rate mode : Constant
Frame rate : 25.000 FPS
Color space : YUV
Chroma subsampling : 4:2:0
Bit depth : 8 bits
Scan type : Progressive
Bits/(Pixel*Frame) : 0.118
Stream size : 398 MiB (94%)
Encoding settings : cabac=1 / ref=1 / deblock=1:0:0 / analyse=0x3:0x3 / me=dia / subme=1 / psy=1 / psy_rd=1.00:0.00 / mixed_ref=0 / me_range=16 / chroma_me=1 / trellis=0 / 8x8dct=1 / cqm=0 / deadzone=21,11 / fast_pskip=1 / chroma_qp_offset=0 / threads=6 / lookahead_threads=1 / sliced_threads=0 / nr=0 / decimate=1 / interlaced=0 / bluray_compat=0 / constrained_intra=0 / bframes=3 / b_pyramid=2 / b_adapt=1 / b_bias=0 / direct=1 / weightb=1 / open_gop=0 / weightp=1 / keyint=250 / keyint_min=25 / scenecut=40 / intra_refresh=0 / rc_lookahead=0 / rc=abr / mbtree=0 / bitrate=2722 / ratetol=1.0 / qcomp=0.60 / qpmin=0 / qpmax=69 / qpstep=4 / vbv_maxrate=62500 / vbv_bufsize=78125 / nal_hrd=none / ip_ratio=1.40 / pb_ratio=1.30 / aq=1:1.00
Encoded date : UTC 2018-01-04 18:03:59
Tagged date : UTC 2018-01-04 18:18:04
Color range : Limited
Color primaries : BT.709
Transfer characteristics : BT.709
Matrix coefficients : BT.709
Menus : 3

Audio
ID : 2
Format : AAC
Format/Info : Advanced Audio Codec
Format profile : LC
Codec ID : 40
Duration : 20 min 35 s
Bit rate mode : Variable
Bit rate : 160 kb/s
Maximum bit rate : 286 kb/s
Channel(s) : 2 channels
Channel positions : Front: L R
Sampling rate : 48.0 kHz
Frame rate : 46.875 FPS (1024 spf)
Compression mode : Lossy
Stream size : 23.5 MiB (6%)
Title : Stereo
Language : English
Encoded date : UTC 2018-01-04 18:03:59
Tagged date : UTC 2018-01-04 18:18:03

Menu
ID : 3
Codec ID : text
Duration : 20 min 35 s
Encoded date : UTC 2018-01-04 18:03:59
Tagged date : UTC 2018-01-04 18:18:04
Bit rate mode : CBR
Menu For : 1
00:00:00.000 : Chapter 1
00:05:52.000 : Chapter 2
00:10:43.000 : Chapter 3
00:15:35.000 : Chapter 4


Screenshots:

Windfall Films - My Floating Home: Series 2 (2017)

Windfall Films - My Floating Home: Series 2 (2017)

Windfall Films - My Floating Home: Series 2 (2017)

Windfall Films - My Floating Home: Series 2 (2017)