Mythica: The Necromancer (2015)

Posted By: Tavaz
1080p (FullHD) / BDRip IMDb
Mythica: The Necromancer (2015)

Mythica: The Necromancer (2015)
BDRip | MKV | 1920x1080 | English | H264 @ 8334 kbps | DTS @ 1509 kbps | 1 h 35 min | 6.54 GiB
Genre: Action, Adventure, Fantasy

Mallister takes Thane prisoner and forces Marek and her team on a quest. Marek tracks down the Necromancer for a final showdown for the Darkspore.

pfa-mythica.3.the.necromancer.1080p.sample.mkv (56.6 MB)
pfa-mythica.3.the.necromancer.1080p.mkv (6.5 GB)



General
Unique ID : 183947479016029656952036137022208549521 (0x8A62FEECF4909DB68785F80496DB2291)
Complete name : ./pfa-mythica.3.the.necromancer.1080p.mkv
Format : Matroska
Format version : Version 4 / Version 2
File size : 6.54 GiB
Duration : 1 h 35 min
Overall bit rate : 9 840 kb/s
Encoded date : UTC 2017-02-23 08:52:53
Writing application : mkvmerge v9.6.0 ('Slave To Your Mind') 64bit
Writing library : libebml v1.3.4 + libmatroska v1.4.5

Video
ID : 1
Format : AVC
Format/Info : Advanced Video Codec
Format profile : High@L4.1
Format settings : CABAC / 4 Ref Frames
Format settings, CABAC : Yes
Format settings, RefFrames : 4 frames
Codec ID : V_MPEG4/ISO/AVC
Duration : 1 h 35 min
Bit rate : 8 334 kb/s
Width : 1 920 pixels
Height : 1 080 pixels
Display aspect ratio : 16:9
Frame rate mode : Constant
Frame rate : 23.976 FPS
Color space : YUV
Chroma subsampling : 4:2:0
Bit depth : 8 bits
Scan type : Progressive
Bits/(Pixel*Frame) : 0.168
Stream size : 5.54 GiB (85%)
Writing library : x264 core 148 r2762 90a61ec
Encoding settings : cabac=1 / ref=4 / deblock=1:0:0 / analyse=0x3:0x133 / me=umh / subme=8 / psy=1 / psy_rd=1.00:0.00 / mixed_ref=1 / me_range=16 / chroma_me=1 / trellis=1 / 8x8dct=1 / cqm=0 / deadzone=21,11 / fast_pskip=0 / chroma_qp_offset=-2 / threads=12 / lookahead_threads=2 / sliced_threads=0 / nr=0 / decimate=1 / interlaced=0 / bluray_compat=0 / constrained_intra=0 / bframes=3 / b_pyramid=2 / b_adapt=1 / b_bias=0 / direct=1 / weightb=1 / open_gop=0 / weightp=2 / keyint=250 / keyint_min=23 / scenecut=40 / intra_refresh=0 / rc_lookahead=40 / rc=2pass / mbtree=1 / bitrate=8334 / ratetol=1.0 / qcomp=0.60 / qpmin=0 / qpmax=69 / qpstep=4 / cplxblur=20.0 / qblur=0.5 / ip_ratio=1.40 / aq=1:1.00
Language : English
Default : Yes
Forced : No

Audio
ID : 2
Format : DTS
Format/Info : Digital Theater Systems
Mode : 16
Format settings, Endianness : Big
Codec ID : A_DTS
Duration : 1 h 35 min
Bit rate mode : Constant
Bit rate : 1 509 kb/s
Channel(s) : 6 channels
Channel positions : Front: L C R, Side: L R, LFE
Sampling rate : 48.0 kHz
Frame rate : 93.750 FPS (512 SPF)
Bit depth : 24 bits
Compression mode : Lossy
Stream size : 1.00 GiB (15%)
Default : Yes
Forced : No





Mythica: The Necromancer (2015)


Mythica: The Necromancer (2015)


Mythica: The Necromancer (2015)


Mythica: The Necromancer (2015)


Mythica: The Necromancer (2015)