Necromancer (1988)

Posted By: Tavaz
SD / DVDRip IMDb
Necromancer (1988)

Necromancer (1988)
MKV | 720x548 | German | H264 @ 1748 kbps | AC-3 @ 192 kbps | 1 h 24 min | 1.17 GiB
Genre: Horror, Thriller

A schoolgirl is raped by three low-lifes, and is then blackmailed by her attackers to keep her quiet. Desperate for revenge, she makes contact with a necromancer, who promptly "takes care" of the boys using her magic powers.

Necromancer Das Tor zur Hölle.mkv (1.2 GB)



General
Unique ID : 239396202167903221224524606969572281784 (0xB41A080BFA72A36AB9713872CAACCDB8)
Complete name : ./Necromancer.Das.Tor.zur.Hoelle.1988.German.Uncut.x264.by.Mirakel/Necromancer Das Tor zur Hölle.mkv
Format : Matroska
Format version : Version 2
File size : 1.17 GiB
Duration : 1 h 24 min
Overall bit rate mode : Variable
Overall bit rate : 1 979 kb/s
Movie name : Necromancer-Das Tor zur Hölle - Uncut - by Mirakel
Encoded date : UTC 2017-05-23 15:50:44
Writing application : DVDFab 9.2.1.2
Writing library : libebml v0.7.8 + libmatroska v0.8.1

Video
ID : 1
Format : AVC
Format/Info : Advanced Video Codec
Format profile : High@L4.1
Format settings : CABAC / 2 Ref Frames
Format settings, CABAC : Yes
Format settings, RefFrames : 2 frames
Format settings, GOP : M=3, N=24
Codec ID : V_MPEG4/ISO/AVC
Duration : 1 h 24 min
Bit rate mode : Variable
Bit rate : 1 748 kb/s
Maximum bit rate : 2 680 kb/s
Width : 720 pixels
Height : 548 pixels
Display aspect ratio : 4:3
Frame rate mode : Constant
Frame rate : 25.000 FPS
Color space : YUV
Chroma subsampling : 4:2:0
Bit depth : 8 bits
Scan type : Progressive
Bits/(Pixel*Frame) : 0.177
Stream size : 1.03 GiB (88%)
Default : Yes
Forced : No

Audio
ID : 2
Format : AC-3
Format/Info : Audio Coding 3
Format settings, Endianness : Big
Codec ID : A_AC3
Duration : 1 h 24 min
Bit rate mode : Constant
Bit rate : 192 kb/s
Channel(s) : 2 channels
Channel positions : Front: L R
Sampling rate : 48.0 kHz
Frame rate : 31.250 FPS (1536 SPF)
Bit depth : 16 bits
Compression mode : Lossy
Stream size : 116 MiB (10%)
Language : German
Service kind : Complete Main
Default : Yes
Forced : No

Menu
00:00:00.000 : en:(01)00:00:00:000
00:08:28.040 : en:(02)00:08:28:040
00:16:07.760 : en:(03)00:16:07:760
00:24:05.000 : en:(04)00:24:05:000
00:32:04.040 : en:(05)00:32:04:040
00:40:07.040 : en:(06)00:40:07:040
00:48:13.160 : en:(07)00:48:13:160
00:56:20.160 : en:(08)00:56:20:160
01:04:04.040 : en:(09)01:04:04:040
01:10:01.200 : en:(10)01:10:01:200
01:15:07.200 : en:(11)01:15:07:200
01:20:01.160 : en:(12)01:20:01:160





Necromancer (1988)


Necromancer (1988)


Necromancer (1988)


Necromancer (1988)


Necromancer (1988)