Negar (2017)

Posted By: JohnSmith
1080p (FullHD) / WEB-DL IMDb
Negar (2017)

Negar (2017)
WEB-DL 1080p | MKV / AVC@6000 kb/s | 1920x1040 | 1h 33mn | 4.01 GB
Persian: AAC, 159 kb/s (2 ch) | Subtitles: English
Genre: Action | Crime | Drama | Mystery | Thriller

According to the police, Negar's father committed suicide. Having had a happy life, Negar suspects that his death has not happened the way it seems. She starts unfolding the truth through an unconventional investigation.

IMDB - 1 win & 8 nominations.



General
Unique ID : 175472954245883972771410626569139727089 (0x8402DC98738FB3F5AD00A449A9952AF1)
Complete name : D:\Downloads\Negar 2017 1080p WEB-DL AAC2.0 H.264-Dariush.mkv
Format : Matroska
Format version : Version 4 / Version 2
File size : 4.01 GiB
Duration : 1 h 33 min
Overall bit rate : 6 158 kb/s
Movie name : Negar [2017] - Dariush
Encoded date : UTC 2018-01-10 06:21:23
Writing application : mkvmerge v15.0.0 ('Duel with the Devil') 64-bit
Writing library : libebml v1.3.5 + libmatroska v1.4.5

Video
ID : 1
Format : AVC
Format/Info : Advanced Video Codec
Format profile : Main@L4
Format settings, CABAC : Yes
Format settings, ReFrames : 4 frames
Codec ID : V_MPEG4/ISO/AVC
Duration : 1 h 33 min
Bit rate : 6 000 kb/s
Width : 1 920 pixels
Height : 1 040 pixels
Display aspect ratio : 1.85:1
Frame rate mode : Constant
Frame rate : 24.000 FPS
Color space : YUV
Chroma subsampling : 4:2:0
Bit depth : 8 bits
Scan type : Progressive
Bits/(Pixel*Frame) : 0.125
Stream size : 3.90 GiB (97%)
Writing library : x264 core 148 r2708 86b7198
Encoding settings : cabac=1 / ref=2 / deblock=1:0:0 / analyse=0x1:0x111 / me=hex / subme=6 / psy=1 / psy_rd=1.00:0.00 / mixed_ref=1 / me_range=16 / chroma_me=1 / trellis=1 / 8x8dct=0 / cqm=0 / deadzone=21,11 / fast_pskip=1 / chroma_qp_offset=-2 / threads=12 / lookahead_threads=2 / sliced_threads=0 / nr=0 / decimate=1 / interlaced=0 / bluray_compat=0 / constrained_intra=0 / bframes=3 / b_pyramid=2 / b_adapt=1 / b_bias=0 / direct=1 / weightb=1 / open_gop=0 / weightp=1 / keyint=240 / keyint_min=24 / scenecut=40 / intra_refresh=0 / rc_lookahead=30 / rc=2pass / mbtree=1 / bitrate=6000 / ratetol=1.0 / qcomp=0.60 / qpmin=0 / qpmax=69 / qpstep=4 / cplxblur=20.0 / qblur=0.5 / vbv_maxrate=20000 / vbv_bufsize=25000 / nal_hrd=none / filler=0 / ip_ratio=1.40 / aq=1:1.00
Default : Yes
Forced : No
Color range : Limited
Color primaries : BT.709
Transfer characteristics : BT.709
Matrix coefficients : BT.709

Audio
ID : 2
Format : AAC
Format/Info : Advanced Audio Codec
Format profile : LC
Codec ID : A_AAC
Duration : 1 h 33 min
Bit rate : 159 kb/s
Channel(s) : 2 channels
Channel positions : Front: L R
Sampling rate : 48.0 kHz
Frame rate : 46.875 FPS (1024 spf)
Compression mode : Lossy
Delay relative to video : -21 ms
Stream size : 106 MiB (3%)
Language : Persian
Default : Yes
Forced : No

Text
ID : 3
Format : UTF-8
Codec ID : S_TEXT/UTF8
Codec ID/Info : UTF-8 Plain Text
Duration : 1 h 29 min
Bit rate : 46 b/s
Count of elements : 1053
Stream size : 30.5 KiB (0%)
Language : English
Default : Yes
Forced : No

Menu
00:00:00.000 : :Chapter 1
00:05:00.200 : :Chapter 2
00:10:00.200 : :Chapter 3
00:15:00.200 : :Chapter 4
00:20:00.200 : :Chapter 5
00:25:00.200 : :Chapter 6
00:30:00.200 : :Chapter 7
00:35:00.200 : :Chapter 8
00:40:00.200 : :Chapter 9
00:45:00.200 : :Chapter 10
00:50:00.200 : :Chapter 11
00:55:00.200 : :Chapter 12
01:00:00.200 : :Chapter 13
01:05:00.200 : :Chapter 14
01:10:00.200 : :Chapter 15
01:15:00.200 : :Chapter 16
01:20:00.200 : :Chapter 17
01:25:00.200 : :Chapter 18
01:30:00.200 : :Chapter 19




Screenshots

Negar (2017)

Negar (2017)

Negar (2017)