Nymphomaniac: Vol. II (2013)

Posted By: Tavaz
1080p (FullHD) / BDRip IMDb
Nymphomaniac: Vol. II (2013)

Nymphomaniac: Vol. II (2013)
BDRip | MKV | 1920x816 | English | H264 @ 8102 kbps | DTS @ 768 kbps | 2 h 3 min | 7.65 GiB
Subtitles: English
Genre: Drama, Mystery

The continuation of Joe's sexually dictated life delves into the darker aspects of her adult life and what led to her being in Seligman's care.

Nymphomaniac.Vol.II.2013.LIMITED.1080p.BluRay.X264-AMIABLE.mkv (7.6 GB)
nymphomaniac.vol.ii.2013.limited.1080p.bluray.x264-amiable.sample.mkv (73.3 MB)



General
Complete name : ./Nymphomaniac.Vol.II.2013.LIMITED.1080p.BluRay.X264-AMIABLE.mkv
Format : Matroska
Format version : Version 2
File size : 7.65 GiB
Duration : 2 h 3 min
Overall bit rate : 8 868 kb/s
Writing application : mkvmerge v6.6.0 ('The Edge Of The In Between') built on Dec 1 2013 17:55:00
Writing library : libebml v1.3.0 + libmatroska v1.4.1

Video
ID : 1
Format : AVC
Format/Info : Advanced Video Codec
Format profile : High@L4.1
Format settings : CABAC / 5 Ref Frames
Format settings, CABAC : Yes
Format settings, RefFrames : 5 frames
Codec ID : V_MPEG4/ISO/AVC
Duration : 2 h 3 min
Bit rate : 8 102 kb/s
Width : 1 920 pixels
Height : 816 pixels
Display aspect ratio : 2.35:1
Frame rate mode : Constant
Frame rate : 23.976 (24000/1001) FPS
Color space : YUV
Chroma subsampling : 4:2:0
Bit depth : 8 bits
Scan type : Progressive
Bits/(Pixel*Frame) : 0.216
Stream size : 6.83 GiB (89%)
Writing library : x264 core 142 r2409 d6b4e63
Encoding settings : cabac=1 / ref=5 / deblock=1:-3:-3 / analyse=0x3:0x113 / me=umh / subme=8 / psy=1 / psy_rd=1.00:0.00 / mixed_ref=1 / me_range=16 / chroma_me=1 / trellis=1 / 8x8dct=1 / cqm=0 / deadzone=21,11 / fast_pskip=1 / chroma_qp_offset=-2 / threads=12 / lookahead_threads=2 / sliced_threads=0 / nr=0 / decimate=1 / interlaced=0 / bluray_compat=0 / constrained_intra=0 / bframes=3 / b_pyramid=2 / b_adapt=2 / b_bias=0 / direct=3 / weightb=1 / open_gop=0 / weightp=2 / keyint=240 / keyint_min=24 / scenecut=40 / intra_refresh=0 / rc_lookahead=50 / rc=2pass / mbtree=1 / bitrate=8102 / ratetol=1.0 / qcomp=0.60 / qpmin=0 / qpmax=69 / qpstep=4 / cplxblur=20.0 / qblur=0.5 / ip_ratio=1.40 / aq=1:1.00
Language : English
Default : Yes
Forced : No

Audio
ID : 2
Format : DTS
Format/Info : Digital Theater Systems
Mode : 16
Format settings, Endianness : Big
Codec ID : A_DTS
Duration : 2 h 3 min
Bit rate mode : Constant
Bit rate : 768 kb/s
Channel(s) : 6 channels
Channel positions : Front: L C R, Side: L R, LFE
Sampling rate : 48.0 kHz
Frame rate : 93.750 FPS (512 SPF)
Bit depth : 24 bits
Compression mode : Lossy
Stream size : 678 MiB (9%)
Language : English
Default : Yes
Forced : No

Text #1
ID : 3
Format : UTF-8
Codec ID : S_TEXT/UTF8
Codec ID/Info : UTF-8 Plain Text
Title : SDH Orig.
Language : English
Default : No
Forced : No

Text #2
ID : 4
Format : UTF-8
Codec ID : S_TEXT/UTF8
Codec ID/Info : UTF-8 Plain Text
Language : English
Default : No
Forced : No

Text #3
ID : 5
Format : UTF-8
Codec ID : S_TEXT/UTF8
Codec ID/Info : UTF-8 Plain Text
Title : SDH Low
Language : English
Default : No
Forced : No

Menu
00:00:00.000 : en:00:00:00.000
00:09:37.911 : en:00:09:37.911
00:20:11.293 : en:00:20:11.293
00:30:42.257 : en:00:30:42.257
00:38:48.159 : en:00:38:48.159
00:50:53.926 : en:00:50:53.926
00:59:07.294 : en:00:59:07.294
01:10:27.598 : en:01:10:27.598
01:19:57.209 : en:01:19:57.209
01:29:57.726 : en:01:29:57.726
01:40:14.175 : en:01:40:14.175
01:51:08.370 : en:01:51:08.370





Nymphomaniac: Vol. II (2013)


Nymphomaniac: Vol. II (2013)


Nymphomaniac: Vol. II (2013)


Nymphomaniac: Vol. II (2013)