OSS 117: Cairo, Nest of Spies (2006)

Posted By: Tavaz
1080p (FullHD) / BDRip IMDb
OSS 117: Cairo, Nest of Spies (2006)

OSS 117: Cairo, Nest of Spies (2006)
BDRip | MKV | 1920x1080 | French | H264 @ 5760 kbps | AC-3 @ 448 kbps | 1 h 39 min | 4.30 GiB
Subtitles: English
Genre: Action, Adventure, Comedy, Crime

Secret agent OSS 117 foils Nazis, beds local beauties, and brings peace to the Middle East.

32f220fc7eec47788a85ef05cb11b7da.mkv (4.3 GB)



General
Complete name : ./32f220fc7eec47788a85ef05cb11b7da.mkv
Format : Matroska
Format version : Version 4 / Version 2
File size : 4.30 GiB
Duration : 1 h 39 min
Overall bit rate : 6 210 kb/s
Encoded date : UTC 2018-04-16 00:33:02 / UTC 2018-04-15T13:32:01Z
Writing application : mkvmerge v22.0.0 ('At The End Of The World') 64-bit
Writing library : libebml v1.3.5 + libmatroska v1.4.8 / Lavf57.7.2

Video
ID : 1
Format : AVC
Format/Info : Advanced Video Codec
Format profile : High@L4
Format settings : CABAC / 4 Ref Frames
Format settings, CABAC : Yes
Format settings, RefFrames : 4 frames
Codec ID : V_MPEG4/ISO/AVC
Duration : 1 h 39 min
Bit rate : 5 760 kb/s
Width : 1 920 pixels
Height : 1 080 pixels
Display aspect ratio : 16:9
Frame rate mode : Constant
Frame rate : 23.976 (24000/1001) FPS
Color space : YUV
Chroma subsampling : 4:2:0
Bit depth : 8 bits
Scan type : Progressive
Bits/(Pixel*Frame) : 0.116
Stream size : 3.90 GiB (91%)
Writing library : x264 core 155 r2893 b00bcaf
Encoding settings : cabac=1 / ref=4 / deblock=1:-3:-3 / analyse=0x3:0x133 / me=umh / subme=9 / psy=1 / psy_rd=1.10:0.25 / mixed_ref=1 / me_range=32 / chroma_me=1 / trellis=2 / 8x8dct=1 / cqm=0 / deadzone=6,6 / fast_pskip=1 / chroma_qp_offset=-4 / threads=18 / lookahead_threads=2 / sliced_threads=0 / nr=0 / decimate=1 / interlaced=0 / bluray_compat=0 / constrained_intra=0 / bframes=6 / b_pyramid=2 / b_adapt=2 / b_bias=0 / direct=3 / weightb=1 / open_gop=0 / weightp=2 / keyint=240 / keyint_min=24 / scenecut=40 / intra_refresh=0 / rc_lookahead=40 / rc=2pass / mbtree=1 / bitrate=5760 / ratetol=1.0 / qcomp=0.60 / qpmin=0 / qpmax=69 / qpstep=4 / cplxblur=20.0 / qblur=0.5 / vbv_maxrate=20000 / vbv_bufsize=25000 / nal_hrd=none / filler=0 / ip_ratio=1.40 / aq=1:1.00
Default : Yes
Forced : No
Color range : Limited
Color primaries : BT.709
Transfer characteristics : BT.709
Matrix coefficients : BT.709
Statistics Tags Issue : mkvmerge v22.0.0 ('At The End Of The World') 64-bit 2018-04-16 00:33:02 / mkvmerge v22.0.0 ('At The End Of The World') 64-bit 2018-04-16 00:33:02 / UTC 2018-04-15T13:32:01Z
FromStats_BitRate : 5760414
FromStats_Duration : 01:39:02.479000000
FromStats_FrameCount : 142477
FromStats_StreamSize : 4278892805

Audio
ID : 2
Format : AC-3
Format/Info : Audio Coding 3
Format settings, Endianness : Big
Codec ID : A_AC3
Duration : 1 h 39 min
Bit rate mode : Constant
Bit rate : 448 kb/s
Channel(s) : 6 channels
Channel positions : Front: L C R, Side: L R, LFE
Sampling rate : 48.0 kHz
Frame rate : 31.250 FPS (1536 SPF)
Bit depth : 16 bits
Compression mode : Lossy
Stream size : 317 MiB (7%)
Title : Surround
Language : French
Service kind : Complete Main
Default : Yes
Forced : No
Statistics Tags Issue : mkvmerge v22.0.0 ('At The End Of The World') 64-bit 2018-04-16 00:33:02 / mkvmerge v22.0.0 ('At The End Of The World') 64-bit 2018-04-16 00:33:02 / UTC 2018-04-15T13:32:01Z
FromStats_BitRate : 448000
FromStats_Duration : 01:39:02.496000000
FromStats_FrameCount : 185703
FromStats_StreamSize : 332779776

Text
ID : 3
Format : UTF-8
Codec ID : S_TEXT/UTF8
Codec ID/Info : UTF-8 Plain Text
Language : English
Default : Yes
Forced : No
Statistics Tags Issue : mkvmerge v22.0.0 ('At The End Of The World') 64-bit 2018-04-16 00:33:02 / mkvmerge v22.0.0 ('At The End Of The World') 64-bit 2018-04-16 00:33:02 / UTC 2018-04-15T13:32:01Z
FromStats_BitRate : 43
FromStats_Duration : 01:38:26.901000000
FromStats_FrameCount : 1083
FromStats_StreamSize : 32001

Menu
00:00:00.000 : :Berlin 1945
00:03:19.241 : :Opening credits
00:04:48.580 : :Princess Al Tarouk
00:07:04.007 : :How is your blanquette ?
00:10:08.983 : :Larmina
00:15:58.249 : :The SCEP
00:20:06.580 : :I like fighting
00:26:27.461 : :Party at the Embassy
00:30:35.292 : :Enigmatic discussion
00:33:24.252 : :In pursuit of the killer
00:36:20.929 : :Culture shock
00:40:09.073 : :In the role of the boss
00:42:19.037 : :Chicken throw
00:45:38.027 : :Fondouk café
00:48:01.962 : :The betrayal
00:51:21.203 : :Midnight swim
00:54:52.039 : :Clues
00:58:39.266 : :Diplomacy lesson
01:01:32.189 : :Heated questioning
01:05:13.910 : :Visiting pyramids
01:13:10.261 : :Action plan
01:16:11.901 : :Bambino
01:19:52.621 : :Three men in one
01:21:11.450 : :The SCEP is not for sale
01:24:49.209 : :False brother
01:30:01.229 : :Successful mission for OSS117
01:31:57.762 : :Epilogue
01:33:18.343 : :Closing credits





OSS 117: Cairo, Nest of Spies (2006)


OSS 117: Cairo, Nest of Spies (2006)


OSS 117: Cairo, Nest of Spies (2006)


OSS 117: Cairo, Nest of Spies (2006)


OSS 117: Cairo, Nest of Spies (2006)