Damien: Omen II (1978)

Posted By: Tavaz
720p (HD) / BDRip IMDb
Damien: Omen II (1978)

Damien: Omen II (1978)
BDRip | MKV | 1280x542 | English | H264 @ 5100 kbps | DTS @ 754 kbps | 1 h 46 min | 4.37 GiB
Subtitles: Czech, Serbian, Slovenian, English
Genre: Horror

Since the sudden and highly suspicious death of his parents, 12-year-old Damien has been in the charge of his wealthy aunt and uncle (Lee Grant and William Holden). Widely feared to be the Antichrist, Damien relentlessly plots to seize control of his uncle's business empire - and the world. Meanwhile, anyone attempting to unravel the secrets of Damien's sinister past or fiendish future meets with a swift and cruel demise.

3SecukbN4pfmR6ejviCGKrqBjC4vbNcq8J.mkv (4.4 GB)



General
Unique ID : 193815298391603193102325155598880318789 (0x91CF77FBC2122B3390594061FB75A545)
Complete name : ./3SecukbN4pfmR6ejviCGKrqBjC4vbNcq8J.mkv
Format : Matroska
Format version : Version 1
File size : 4.37 GiB
Duration : 1 h 46 min
Overall bit rate : 5 858 kb/s
Encoded date : UTC 2008-10-18 21:31:33
Writing application : mkvmerge v2.4.0 ('Fumbling Towards Ecstasy') built on Oct 11 2008 20:13:15
Writing library : libebml v0.7.7 + libmatroska v0.8.1

Video
ID : 1
Format : AVC
Format/Info : Advanced Video Codec
Format profile : High@L5.1
Format settings : CABAC / 5 Ref Frames
Format settings, CABAC : Yes
Format settings, RefFrames : 5 frames
Format settings, GOP : N=1
Codec ID : V_MPEG4/ISO/AVC
Duration : 1 h 46 min
Bit rate : 5 100 kb/s
Width : 1 280 pixels
Height : 542 pixels
Display aspect ratio : 2.35:1
Frame rate mode : Constant
Frame rate : 23.976 FPS
Color space : YUV
Chroma subsampling : 4:2:0
Bit depth : 8 bits
Scan type : Progressive
Bits/(Pixel*Frame) : 0.307
Stream size : 3.72 GiB (85%)
Title : Omen II: Damien 1978 720p
Writing library : x264 core 65 r997M 65b837f
Encoding settings : cabac=1 / ref=5 / deblock=1:-3:-3 / analyse=0x3:0x133 / me=umh / subme=9 / psy_rd=1.0:1.0 / mixed_ref=1 / me_range=26 / chroma_me=1 / trellis=2 / 8x8dct=1 / cqm=2 / deadzone=21,11 / chroma_qp_offset=-4 / threads=6 / nr=0 / decimate=1 / mbaff=0 / bframes=5 / b_pyramid=1 / b_adapt=2 / b_bias=0 / direct=3 / wpredb=1 / keyint=250 / keyint_min=25 / scenecut=40(pre) / rc=2pass / bitrate=5100 / ratetol=1.0 / qcomp=0.60 / qpmin=10 / qpmax=51 / qpstep=4 / cplxblur=20.0 / qblur=0.5 / ip_ratio=1.40 / pb_ratio=1.30 / aq=1:0.90
Language : English
Default : Yes
Forced : No

Audio
ID : 2
Format : DTS
Format/Info : Digital Theater Systems
Mode : 16
Format settings, Endianness : Big
Codec ID : A_DTS
Duration : 1 h 46 min
Bit rate mode : Constant
Bit rate : 754 kb/s
Channel(s) : 6 channels
Channel positions : Front: L C R, Side: L R, LFE
Sampling rate : 48.0 kHz
Frame rate : 93.750 FPS (512 SPF)
Bit depth : 24 bits
Compression mode : Lossy
Stream size : 577 MiB (13%)
Title : DTS 5.1 @ 768 Kbps
Language : English
Default : Yes
Forced : No

Text #1
ID : 3
Format : UTF-8
Codec ID : S_TEXT/UTF8
Codec ID/Info : UTF-8 Plain Text
Language : Czech
Default : No
Forced : No

Text #2
ID : 4
Format : UTF-8
Codec ID : S_TEXT/UTF8
Codec ID/Info : UTF-8 Plain Text
Language : English
Default : Yes
Forced : No

Text #3
ID : 5
Format : UTF-8
Codec ID : S_TEXT/UTF8
Codec ID/Info : UTF-8 Plain Text
Language : Serbian
Default : No
Forced : No

Text #4
ID : 6
Format : UTF-8
Codec ID : S_TEXT/UTF8
Codec ID/Info : UTF-8 Plain Text
Language : Slovenian
Default : No
Forced : No





Damien: Omen II (1978)


Damien: Omen II (1978)


Damien: Omen II (1978)


Damien: Omen II (1978)


Damien: Omen II (1978)