Psalm 21 (2009)

Posted By: Tavaz
720p (HD) / BDRip IMDb
Psalm 21 (2009)

Psalm 21 (2009)
BRRip | MKV | 1280x544 | Swedish | H264 @ 4869 kbps | DTS @ 1509 kbps | 1 h 38 min | 4.37 GiB
Subtitles: Dutch
Genre: Science fiction film/Thriller

Henrik is a young father who lives in Stockholm, constantly plagued by nightmares with his deceased mother. One day, he receives the news that his father, father, who lives in a remote village, it is drowned and died. The circumstances of drowning are mysterious. Henrik travels to the village to investigate the cause of his death. To find out more about the drowning and on his father, the door to the unknown and open. Shadows of the past emerge, returning to this world for one reason only: revenge.

Psalm.21.2009.Swedish.720p.BRRip.DTS.x264-NWT.mkv (4.4 GB)



General
Unique ID : 233684594907758765112920060830319034033 (0xAFCE041133C606ECB88D1A8C00CABEB1)
Complete name : ./Psalm.21.2009.Swedish.720p.BRRip.DTS.x264-NWT.mkv
Format : Matroska
Format version : Version 4 / Version 2
File size : 4.37 GiB
Duration : 1 h 38 min
Overall bit rate : 6 375 kb/s
Encoded date : UTC 2017-10-21 12:51:53
Writing application : mkvmerge v17.0.0 ('Be Ur Friend') 64-bit
Writing library : libebml v1.3.5 + libmatroska v1.4.8

Video
ID : 1
Format : AVC
Format/Info : Advanced Video Codec
Format profile : High@L4.1
Format settings : CABAC / 5 Ref Frames
Format settings, CABAC : Yes
Format settings, RefFrames : 5 frames
Codec ID : V_MPEG4/ISO/AVC
Duration : 1 h 38 min
Bit rate : 4 869 kb/s
Width : 1 280 pixels
Height : 544 pixels
Display aspect ratio : 2.35:1
Frame rate mode : Constant
Frame rate : 24.000 FPS
Color space : YUV
Chroma subsampling : 4:2:0
Bit depth : 8 bits
Scan type : Progressive
Bits/(Pixel*Frame) : 0.291
Stream size : 3.34 GiB (76%)
Title : NWT
Writing library : x264 core 113 r1884 7313bb5
Encoding settings : cabac=1 / ref=5 / deblock=1:0:0 / analyse=0x3:0x113 / me=umh / subme=8 / psy=1 / psy_rd=1.00:0.00 / mixed_ref=1 / me_range=16 / chroma_me=1 / trellis=1 / 8x8dct=1 / cqm=0 / deadzone=21,11 / fast_pskip=1 / chroma_qp_offset=-2 / threads=12 / sliced_threads=0 / nr=0 / decimate=1 / interlaced=0 / constrained_intra=0 / bframes=3 / b_pyramid=2 / b_adapt=2 / b_bias=0 / direct=3 / weightb=1 / open_gop=0 / weightp=2 / keyint=250 / keyint_min=24 / scenecut=40 / intra_refresh=0 / rc_lookahead=50 / rc=2pass / mbtree=1 / bitrate=4869 / ratetol=1.0 / qcomp=0.60 / qpmin=0 / qpmax=69 / qpstep=4 / cplxblur=20.0 / qblur=0.5 / ip_ratio=1.40 / aq=1:1.00
Language : English
Default : Yes
Forced : No

Audio
ID : 2
Format : DTS
Format/Info : Digital Theater Systems
Mode : 16
Format settings, Endianness : Big
Codec ID : A_DTS
Duration : 1 h 38 min
Bit rate mode : Constant
Bit rate : 1 509 kb/s
Channel(s) : 6 channels
Channel positions : Front: L C R, Side: L R, LFE
Sampling rate : 48.0 kHz
Frame rate : 93.750 FPS (512 SPF)
Bit depth : 24 bits
Compression mode : Lossy
Stream size : 1.04 GiB (24%)
Title : 6 channels
Language : Swedish
Default : Yes
Forced : No

Text
ID : 3
Format : UTF-8
Codec ID : S_TEXT/UTF8
Codec ID/Info : UTF-8 Plain Text
Duration : 1 h 34 min
Bit rate : 26 b/s
Count of elements : 586
Stream size : 18.7 KiB (0%)
Title : Dutch Retail
Language : Dutch
Default : Yes
Forced : No

Menu
00:00:00.000 : en:00:00:00.000
00:11:36.333 : en:00:11:36.333
00:17:00.917 : en:00:17:00.917
00:23:50.583 : en:00:23:50.583
00:35:13.833 : en:00:35:13.833
00:41:30.500 : en:00:41:30.500
00:49:36.958 : en:00:49:36.958
00:59:19.375 : en:00:59:19.375
01:07:55.833 : en:01:07:55.833
01:16:31.333 : en:01:16:31.333
01:21:59.000 : en:01:21:59.000
01:34:40.250 : en:01:34:40.250
01:37:58.000 : en:01:37:58.000





Psalm 21 (2009)


Psalm 21 (2009)


Psalm 21 (2009)


Psalm 21 (2009)


Psalm 21 (2009)