Ratatouille (2007) [10 bit]

Posted By: Tavaz
1080p (FullHD) / BDRip IMDb
Ratatouille (2007) [10 bit]

Ratatouille (2007) [10 bit]
BDRip | MKV | 1920x802 | English | H265 @ 1050 kbps | AC-3 @ 640 kbps | 1 h 50 min | 1.33 GiB
Subtitles: English
Genre: Animation, Comedy, Fantasy, Family

A rat named Remy dreams of becoming a great French chef despite his family's wishes and the obvious problem of being a rat in a decidedly rodent-phobic profession. When fate places Remy in the sewers of Paris, he finds himself ideally situated beneath a restaurant made famous by his culinary hero, Auguste Gusteau. Despite the apparent dangers of being an unlikely - and certainly unwanted - visitor in the kitchen of a fine French restaurant, Remy's passion for cooking soon sets into motion a hilarious and exciting rat race that turns the culinary world of Paris upside down.

Ratatouille.2007.1080p.BluRay.AC3.x265.10bit.HEVC.mkv (1.3 GB)



General
Unique ID : 149711450711024089687336151749935908035 (0x70A160687A43513042DAF86ED88A44C3)
Complete name : ./Ratatouille.2007.1080p.BluRay.AC3.x265.10bit.HEVC.mkv
Format : Matroska
Format version : Version 4 / Version 2
File size : 1.33 GiB
Duration : 1 h 50 min
Overall bit rate : 1 725 kb/s
Encoded date : UTC 2018-06-10T04:37:16Z
Writing application : HandBrake 20180312160525-c038876-master 2018031401
Writing library : Lavf57.7.2

Video
ID : 1
Format : HEVC
Format/Info : High Efficiency Video Coding
Format profile : Main 10@L4@Main
Codec ID : V_MPEGH/ISO/HEVC
Duration : 1 h 50 min
Bit rate : 1 051 kb/s
Width : 1 920 pixels
Height : 802 pixels
Display aspect ratio : 2.40:1
Frame rate mode : Constant
Frame rate : 23.976 (24000/1001) FPS
Color space : YUV
Chroma subsampling : 4:2:0
Bit depth : 10 bits
Bits/(Pixel*Frame) : 0.028
Stream size : 831 MiB (61%)
Writing library : x265 2.6:[Windows][GCC 7.1.0][64 bit] 10bit
Encoding settings : cpuid=1173503 / frame-threads=4 / numa-pools=16 / wpp / no-pmode / no-pme / no-psnr / no-ssim / log-level=2 / input-csp=1 / input-res=1920x802 / interlace=0 / total-frames=0 / level-idc=0 / high-tier=1 / uhd-bd=0 / ref=3 / no-allow-non-conformance / no-repeat-headers / annexb / no-aud / no-hrd / info / hash=0 / no-temporal-layers / open-gop / min-keyint=24 / keyint=240 / bframes=4 / b-adapt=0 / b-pyramid / bframe-bias=0 / rc-lookahead=15 / lookahead-slices=5 / scenecut=40 / no-intra-refresh / ctu=64 / min-cu-size=8 / no-rect / no-amp / max-tu-size=32 / tu-inter-depth=1 / tu-intra-depth=1 / limit-tu=0 / rdoq-level=0 / dynamic-rd=0.00 / no-ssim-rd / signhide / no-tskip / nr-intra=0 / nr-inter=0 / no-constrained-intra / strong-intra-smoothing / max-merge=2 / limit-refs=3 / no-limit-modes / me=1 / subme=2 / merange=57 / temporal-mvp / weightp / no-weightb / no-analyze-src-pics / deblock=0:0 / sao / no-sao-non-deblock / rd=2 / no-early-skip / rskip / fast-intra / no-tskip-fast / no-cu-lossless / no-b-intra / no-splitrd-skip / rdpenalty=0 / psy-rd=2.00 / psy-rdoq=0.00 / no-rd-refine / analysis-reuse-mode=0 / no-lossless / cbqpoffs=0 / crqpoffs=0 / rc=crf / crf=23.0 / qcomp=0.60 / qpstep=4 / stats-write=0 / stats-read=0 / ipratio=1.40 / pbratio=1.30 / aq-mode=1 / aq-strength=1.00 / cutree / zone-count=0 / no-strict-cbr / qg-size=32 / no-rc-grain / qpmax=69 / qpmin=0 / no-const-vbv / sar=1 / overscan=0 / videoformat=5 / range=0 / colorprim=1 / transfer=1 / colormatrix=1 / chromaloc=0 / display-window=0 / max-cll=0,0 / min-luma=0 / max-luma=1023 / log2-max-poc-lsb=8 / vui-timing-info / vui-hrd-info / slices=1 / no-opt-qp-pps / no-opt-ref-list-length-pps / no-multi-pass-opt-rps / scenecut-bias=0.05 / no-opt-cu-delta-qp / no-aq-motion / no-hdr / no-hdr-opt / no-dhdr10-opt / analysis-reuse-level=5 / scale-factor=0 / refine-intra=0 / refine-inter=0 / refine-mv=0 / no-limit-sao / ctu-info=0 / no-lowpass-dct / refine-mv-type=0 / copy-pic=1
Default : Yes
Forced : No
Color range : Limited
Color primaries : BT.709
Transfer characteristics : BT.709
Matrix coefficients : BT.709

Audio
ID : 2
Format : AC-3
Format/Info : Audio Coding 3
Format settings, Endianness : Big
Codec ID : A_AC3
Duration : 1 h 50 min
Bit rate mode : Constant
Bit rate : 640 kb/s
Channel(s) : 6 channels
Channel positions : Front: L C R, Side: L R, LFE
Sampling rate : 48.0 kHz
Frame rate : 31.250 FPS (1536 SPF)
Bit depth : 16 bits
Compression mode : Lossy
Stream size : 506 MiB (37%)
Title : Surround
Language : English
Service kind : Complete Main
Default : Yes
Forced : No

Text
ID : 3
Format : PGS
Codec ID : S_HDMV/PGS
Codec ID/Info : Picture based subtitle format used on BDs/HD-DVDs
Language : English
Default : No
Forced : No

Menu
00:00:00.000 : :Chapter 1
00:01:16.410 : :Chapter 2
00:06:29.431 : :Chapter 3
00:09:22.896 : :Chapter 4
00:10:58.158 : :Chapter 5
00:13:30.977 : :Chapter 6
00:17:40.101 : :Chapter 7
00:19:37.635 : :Chapter 8
00:24:48.570 : :Chapter 9
00:28:55.234 : :Chapter 10
00:33:05.150 : :Chapter 11
00:38:13.500 : :Chapter 12
00:40:33.222 : :Chapter 13
00:44:11.232 : :Chapter 14
00:46:59.317 : :Chapter 15
00:51:27.668 : :Chapter 16
00:57:02.169 : :Chapter 17
00:59:32.319 : :Chapter 18
01:00:53.525 : :Chapter 19
01:07:19.827 : :Chapter 20
01:11:25.740 : :Chapter 21
01:15:28.315 : :Chapter 22
01:19:25.094 : :Chapter 23
01:23:30.214 : :Chapter 24
01:25:34.463 : :Chapter 25
01:28:18.335 : :Chapter 26
01:32:39.012 : :Chapter 27
01:35:41.527 : :Chapter 28
01:38:49.799 : :Chapter 29
01:40:55.258 : :Chapter 30
01:42:59.048 : :Chapter 31





Ratatouille (2007) [10 bit]


Ratatouille (2007) [10 bit]


Ratatouille (2007) [10 bit]


Ratatouille (2007) [10 bit]


Ratatouille (2007) [10 bit]