Roseanne for President! (2015)

Posted By: JohnSmith
1080p (FullHD) / WEB-DL IMDb
Roseanne for President! (2015)

Roseanne for President! (2015)
WEB-DL 1080p | MKV / AVC@5546 kb/s | 1920x1080 | 1h 36mn | 3.80 GB
English: AAC, 64 kb/s (2 ch) | Subtitles: English
Genre: Documentary | Biography | Comedy

Comedian Roseanne Barr embarks on the most off-the-rails presidential campaign in U.S. history. 25 years after bringing working-class struggles to the pinnacle of show business, Roseanne is uniquely qualified to fix everything. What begins as a political journey becomes a raw and revealing portrait of a comedic icon.

IMDB - 1 win.



General
Unique ID : 236378571006033222339427416053206783646 (0xB1D4DB57FA8BE8769DF643306FDC969E)
Complete name : D:\Downloads\Roseanne.for.President.2015.1080p.Hulu.WEB-DL.AAC2.0.H.264-QOQ.mkv
Format : Matroska
Format version : Version 4 / Version 2
File size : 3.80 GiB
Duration : 1 h 36 min
Overall bit rate : 5 612 kb/s
Encoded date : UTC 2018-01-08 00:37:36
Writing application : mkvmerge v9.5.0 ('Quiet Fire') 32bit
Writing library : libebml v1.3.4 + libmatroska v1.4.5

Video
ID : 1
Format : AVC
Format/Info : Advanced Video Codec
Format profile : High@L4
Format settings, CABAC : Yes
Format settings, ReFrames : 4 frames
Codec ID : V_MPEG4/ISO/AVC
Duration : 1 h 36 min
Bit rate : 5 546 kb/s
Width : 1 920 pixels
Height : 1 080 pixels
Display aspect ratio : 16:9
Frame rate mode : Constant
Frame rate : 23.976 FPS
Color space : YUV
Chroma subsampling : 4:2:0
Bit depth : 8 bits
Scan type : Progressive
Bits/(Pixel*Frame) : 0.112
Stream size : 3.76 GiB (99%)
Default : Yes
Forced : No

Audio
ID : 2
Format : AAC
Format/Info : Advanced Audio Codec
Format profile : HE-AAC / LC
Codec ID : A_AAC
Duration : 1 h 36 min
Bit rate : 64.0 kb/s
Channel(s) : 2 channels
Channel positions : Front: L R
Sampling rate : 48.0 kHz / 24.0 kHz
Frame rate : 23.438 FPS (1024 spf)
Compression mode : Lossy
Stream size : 44.4 MiB (1%)
Default : Yes
Forced : No

Text
ID : 3
Format : UTF-8
Codec ID : S_TEXT/UTF8
Codec ID/Info : UTF-8 Plain Text
Duration : 1 h 36 min
Bit rate : 95 b/s
Count of elements : 1898
Stream size : 67.9 KiB (0%)
Language : English
Default : No
Forced : No




Screenshots

Roseanne for President! (2015)

Roseanne for President! (2015)

Roseanne for President! (2015)