Roy Wood Jr.: Father Figure (2017)

Posted By: Tavaz
720p (HD) / WEBRip IMDb
Roy Wood Jr.: Father Figure (2017)

Roy Wood Jr.: Father Figure (2017)
WEBRip | MKV | 1280x720 | English | H264 @ 3768 kbps | E-AC-3 @ 224 kbps | 1 h 0 min | 1.68 GiB
Subtitles: English
Genre: Comedy

Roy Wood Jr. tackles freeway protests, examines the origin of the blues, and explains why the Confederate flag is sometimes helpful.

a1ab4be0b7ce427ba8c5ee6939c31be7.mkv (1.7 GB)



General
Unique ID : 237263295574630098938663823013675816135 (0xB27F3FA1F6AC95E9BA991EE63F8854C7)
Complete name : ./a1ab4be0b7ce427ba8c5ee6939c31be7.mkv
Format : Matroska
Format version : Version 4 / Version 2
File size : 1.68 GiB
Duration : 1 h 0 min
Overall bit rate : 3 995 kb/s
Encoded date : UTC 2017-11-17 20:33:13
Writing application : mkvmerge v10.0.0 ('To Drown In You') 64bit
Writing library : libebml v1.3.4 + libmatroska v1.4.5

Video
ID : 1
Format : AVC
Format/Info : Advanced Video Codec
Format profile : High@L4.1
Format settings : CABAC / 9 Ref Frames
Format settings, CABAC : Yes
Format settings, RefFrames : 9 frames
Codec ID : V_MPEG4/ISO/AVC
Duration : 1 h 0 min
Bit rate : 3 769 kb/s
Width : 1 280 pixels
Height : 720 pixels
Display aspect ratio : 16:9
Frame rate mode : Constant
Frame rate : 23.976 (24000/1001) FPS
Color space : YUV
Chroma subsampling : 4:2:0
Bit depth : 8 bits
Scan type : Progressive
Bits/(Pixel*Frame) : 0.171
Stream size : 1.59 GiB (94%)
Writing library : x264 core 152 r2851 ba24899
Encoding settings : cabac=1 / ref=9 / deblock=1:-3:-3 / analyse=0x3:0x133 / me=umh / subme=11 / psy=1 / psy_rd=1.00:0.15 / mixed_ref=1 / me_range=64 / chroma_me=1 / trellis=2 / 8x8dct=1 / cqm=0 / deadzone=21,11 / fast_pskip=0 / chroma_qp_offset=-3 / threads=12 / lookahead_threads=3 / sliced_threads=0 / nr=0 / decimate=0 / interlaced=0 / bluray_compat=0 / constrained_intra=0 / bframes=16 / b_pyramid=2 / b_adapt=2 / b_bias=0 / direct=3 / weightb=1 / open_gop=0 / weightp=2 / keyint=250 / keyint_min=23 / scenecut=40 / intra_refresh=0 / rc=crf / mbtree=0 / crf=17.0 / qcomp=0.60 / qpmin=0 / qpmax=69 / qpstep=4 / ip_ratio=1.40 / pb_ratio=1.30 / aq=3:0.70
Default : Yes
Forced : No

Audio
ID : 2
Format : E-AC-3
Format/Info : Enhanced Audio Coding 3
Format settings, Endianness : Big
Codec ID : A_EAC3
Duration : 1 h 0 min
Bit rate mode : Constant
Bit rate : 224 kb/s
Channel(s) : 2 channels
Channel positions : Front: L R
Sampling rate : 48.0 kHz
Frame rate : 187.500 FPS (256 SPF)
Compression mode : Lossy
Stream size : 96.7 MiB (6%)
Language : English
Service kind : Complete Main
Default : Yes
Forced : No

Text
ID : 3
Format : UTF-8
Codec ID : S_TEXT/UTF8
Codec ID/Info : UTF-8 Plain Text
Duration : 59 min 25 s
Bit rate : 108 b/s
Count of elements : 1338
Stream size : 47.1 KiB (0%)
Language : English
Default : No
Forced : No





Roy Wood Jr.: Father Figure (2017)


Roy Wood Jr.: Father Figure (2017)


Roy Wood Jr.: Father Figure (2017)


Roy Wood Jr.: Father Figure (2017)


Roy Wood Jr.: Father Figure (2017)