Santa Who? (2000)

Posted By: Tavaz
1080p (FullHD) / WEBRip IMDb
Santa Who? (2000)

Santa Who? (2000)
WEBRip | MKV | 1920x1080 | English | H264 @ 14321 kbps | AAC @ 125 kbps | 1 h 32 min | 9.30 GiB
Genre: Comedy, Fantasy

Santa Claus develops amnesia after accidentally falling out of his sleigh and only the innocence of a small child can save him. Meanwhile, Santa has to battle the disbelief of a newsman.

Santa.Who.2000.1080p.AMZN.WEBRip.AAC2.0.x264-FGT.mkv (9.3 GB)



General
Unique ID : 279477103043487564418134049675859828489 (0xD2415507ED49ADBA6A437E5818A99F09)
Complete name : ./Santa.Who.2000.1080p.AMZN.WEBRip.AAC2.0.x264-FGT/Santa.Who.2000.1080p.AMZN.WEBRip.AAC2.0.x264-FGT.mkv
Format : Matroska
Format version : Version 4 / Version 2
File size : 9.30 GiB
Duration : 1 h 32 min
Overall bit rate mode : Variable
Overall bit rate : 14.4 Mb/s
Movie name : Santa.Who.2000.1080p.AMZN.WEBRip.AAC2.0.x264-FGT
Encoded date : UTC 2018-01-30 22:16:43
Writing application : mkvmerge v20.0.0 ('I Am The Sun') 64-bit
Writing library : libebml v1.3.5 + libmatroska v1.4.8
Cover : Yes
Attachments : small_cover.jpg / small_cover_land.jpg / cover.jpg / cover_land.jpg

Video
ID : 1
Format : AVC
Format/Info : Advanced Video Codec
Format profile : High@L4
Format settings : CABAC / 4 Ref Frames
Format settings, CABAC : Yes
Format settings, RefFrames : 4 frames
Codec ID : V_MPEG4/ISO/AVC
Duration : 1 h 32 min
Bit rate mode : Variable
Bit rate : 14.3 Mb/s
Maximum bit rate : 15.0 Mb/s
Width : 1 920 pixels
Height : 1 080 pixels
Display aspect ratio : 16:9
Frame rate mode : Constant
Frame rate : 23.976 (24000/1001) FPS
Color space : YUV
Chroma subsampling : 4:2:0
Bit depth : 8 bits
Scan type : Progressive
Bits/(Pixel*Frame) : 0.288
Stream size : 9.22 GiB (99%)
Title : Santa.Who.2000.1080p.AMZN.WEBRip.AAC2.0.x264-FGT
Writing library : x264 core 148 r2623 d5b2374
Encoding settings : cabac=1 / ref=4 / deblock=1:-1:-1 / analyse=0x3:0x133 / me=umh / subme=9 / psy=1 / psy_rd=1.00:0.15 / mixed_ref=1 / me_range=24 / chroma_me=1 / trellis=2 / 8x8dct=1 / cqm=0 / deadzone=21,11 / fast_pskip=1 / chroma_qp_offset=-3 / threads=34 / lookahead_threads=5 / sliced_threads=0 / nr=150 / decimate=1 / interlaced=0 / bluray_compat=0 / constrained_intra=0 / bframes=8 / b_pyramid=2 / b_adapt=2 / b_bias=0 / direct=3 / weightb=1 / open_gop=0 / weightp=2 / keyint=120 / keyint_min=61 / scenecut=0 / intra_refresh=0 / rc_lookahead=120 / rc=crf / mbtree=1 / crf=18.0 / qcomp=0.60 / qpmin=0 / qpmax=69 / qpstep=4 / vbv_maxrate=15000 / vbv_bufsize=31250 / crf_max=0.0 / nal_hrd=vbr / filler=0 / ip_ratio=1.40 / aq=3:1.00
Default : Yes
Forced : No
Color range : Limited
Color primaries : BT.709
Transfer characteristics : BT.709
Matrix coefficients : BT.709

Audio
ID : 2
Format : AAC
Format/Info : Advanced Audio Codec
Format profile : LC
Codec ID : A_AAC-2
Duration : 1 h 32 min
Bit rate : 125 kb/s
Channel(s) : 2 channels
Channel positions : Front: L R
Sampling rate : 48.0 kHz
Frame rate : 46.875 FPS (1024 SPF)
Compression mode : Lossy
Delay relative to video : -82 ms
Stream size : 82.6 MiB (1%)
Title : Santa.Who.2000.1080p.AMZN.WEBRip.AAC2.0.x264-FGT
Language : English
Default : Yes
Forced : No





Santa Who? (2000)


Santa Who? (2000)


Santa Who? (2000)


Santa Who? (2000)


Santa Who? (2000)