Demi Lovato: Simply Complicated (2017) [Directors Cut]

Posted By: Tavaz
1080p (FullHD) / WEBRip IMDb
Demi Lovato: Simply Complicated (2017) [Directors Cut]

Demi Lovato: Simply Complicated (2017) [Directors Cut]
WEBRip | MKV | 1920x1080 | English | H264 @ 2960 kbps | AAC @ 384 kbps | 1 h 27 min | 2.06 GiB
Genre: Documentary, Music

Demi Lovato: Simply Complicated is a full length documentary that gives a personal and intimate look into Demi Lovato's life as not only a regular 25 year old, but also one of the biggest pop stars in the world.

49bc808ec6c7460da0a5fc7fee7ad076.mkv (2.1 GB)



General
Complete name : ./49bc808ec6c7460da0a5fc7fee7ad076.mkv
Format : Matroska
Format version : Version 4 / Version 2
File size : 2.06 GiB
Duration : 1 h 27 min
Overall bit rate : 3 346 kb/s
Encoded date : UTC 2018-04-16 13:14:07
Writing application : mkvmerge v20.0.0 ('I Am The Sun') 64-bit
Writing library : libebml v1.3.5 + libmatroska v1.4.8

Video
ID : 1
Format : AVC
Format/Info : Advanced Video Codec
Format profile : High@L4
Format settings : CABAC / 2 Ref Frames
Format settings, CABAC : Yes
Format settings, RefFrames : 2 frames
Codec ID : V_MPEG4/ISO/AVC
Duration : 1 h 27 min
Bit rate : 2 960 kb/s
Width : 1 920 pixels
Height : 1 080 pixels
Display aspect ratio : 16:9
Frame rate mode : Constant
Frame rate : 23.976 (24000/1001) FPS
Color space : YUV
Chroma subsampling : 4:2:0
Bit depth : 8 bits
Scan type : Progressive
Bits/(Pixel*Frame) : 0.060
Stream size : 1.82 GiB (88%)
Default : Yes
Forced : No
Color range : Limited
Color primaries : BT.709
Transfer characteristics : BT.709
Matrix coefficients : BT.709

Audio
ID : 2
Format : AAC
Format/Info : Advanced Audio Codec
Format profile : LC
Codec ID : A_AAC-2
Duration : 1 h 27 min
Bit rate : 384 kb/s
Channel(s) : 6 channels
Channel positions : Front: L C R, Side: L R, LFE
Sampling rate : 48.0 kHz
Frame rate : 46.875 FPS (1024 SPF)
Compression mode : Lossy
Stream size : 241 MiB (11%)
Language : English
Default : Yes
Forced : No





Demi Lovato: Simply Complicated (2017) [Directors Cut]


Demi Lovato: Simply Complicated (2017) [Directors Cut]


Demi Lovato: Simply Complicated (2017) [Directors Cut]


Demi Lovato: Simply Complicated (2017) [Directors Cut]


Demi Lovato: Simply Complicated (2017) [Directors Cut]