Stephanie (2017)

Posted By: Without
1080p (FullHD) / WEB-DL IMDb
Stephanie (2017)

Stephanie (2017)
WEB-DL 720p | MKV | 1280x528 | AVC@2108 kb/s | English AC3@640 kb/s
Subs: English | 6 channels | 1 h 26 min | 1.65 GB
WEB-DL 1080p | MKV | 1920x800 | AVC@7662 kb/s | English AC3@640 kb/s
Subs: English | 6 channels | 1 h 26 min | 5.00 GB
Genre: Drama, Fantasy, Horror

An orphaned young girl with unworldly powers is taken in by a man and woman who claim to be her parents.



General
Stephanie.2018.720p.AMZN.WEB-DL.DDP5.1.H.264-NTG.mkv
Format : Matroska
Format version : Version 4 / Version 2
File size : 1.65 GiB
Duration : 1 h 26 min
Overall bit rate mode : Variable
Overall bit rate : 2 749 kb/s
Encoded date : UTC 2018-04-17 07:25:13
Writing application : mkvmerge v21.0.0 ('Tardigrades Will Inherit The Earth') 64-bit
Writing library : libebml v1.3.5 + libmatroska v1.4.8

Video
ID : 1
Format : AVC
Format/Info : Advanced Video Codec
Format profile : High@L3.1
Format settings, CABAC : Yes
Format settings, ReFrames : 5 frames
Codec ID : V_MPEG4/ISO/AVC
Duration : 1 h 26 min
Bit rate mode : Variable
Bit rate : 2 108 kb/s
Maximum bit rate : 4 500 kb/s
Width : 1 280 pixels
Height : 528 pixels
Display aspect ratio : 2.40:1
Original display aspect ratio : 2.40:1
Frame rate mode : Constant
Frame rate : 23.976 (24000/1001) FPS
Color space : YUV
Chroma subsampling : 4:2:0
Bit depth : 8 bits
Scan type : Progressive
Bits/(Pixel*Frame) : 0.130
Stream size : 1.27 GiB (77%)
Default : Yes
Forced : No
Color range : Limited
Color primaries : BT.709
Transfer characteristics : BT.709
Matrix coefficients : BT.709

Audio
ID : 2
Format : E-AC-3
Format/Info : Enhanced Audio Coding 3
Format settings, Endianness : Big
Codec ID : A_EAC3
Duration : 1 h 26 min
Bit rate mode : Constant
Bit rate : 640 kb/s
Channel(s) : 6 channels
Channel positions : Front: L C R, Side: L R, LFE
Sampling rate : 48.0 kHz
Frame rate : 187.500 FPS (256 spf)
Compression mode : Lossy
Stream size : 394 MiB (23%)
Language : English
Default : Yes
Forced : No

Text #1
ID : 3
Format : UTF-8
Codec ID : S_TEXT/UTF8
Codec ID/Info : UTF-8 Plain Text
Duration : 1 h 14 min
Bit rate : 26 b/s
Count of elements : 646
Stream size : 14.3 KiB (0%)
Language : English
Default : No
Forced : No

Text #2
ID : 4
Format : UTF-8
Codec ID : S_TEXT/UTF8
Codec ID/Info : UTF-8 Plain Text
Duration : 1 h 23 min
Bit rate : 30 b/s
Count of elements : 894
Stream size : 18.6 KiB (0%)
Title : SDH
Language : English
Default : No
Forced : No

General
Stephanie.2018.1080p.AMZN.WEB-DL.DDP5.1.H.264-NTG.mkv
Format : Matroska
Format version : Version 4 / Version 2
File size : 5.00 GiB
Duration : 1 h 26 min
Overall bit rate mode : Variable
Overall bit rate : 8 304 kb/s
Encoded date : UTC 2018-04-17 07:20:12
Writing application : mkvmerge v21.0.0 ('Tardigrades Will Inherit The Earth') 64-bit
Writing library : libebml v1.3.5 + libmatroska v1.4.8

Video
ID : 1
Format : AVC
Format/Info : Advanced Video Codec
Format profile : High@L4
Format settings, CABAC : Yes
Format settings, ReFrames : 4 frames
Codec ID : V_MPEG4/ISO/AVC
Duration : 1 h 26 min
Bit rate mode : Variable
Bit rate : 7 662 kb/s
Maximum bit rate : 15.0 Mb/s
Width : 1 920 pixels
Height : 800 pixels
Display aspect ratio : 2.40:1
Frame rate mode : Constant
Frame rate : 23.976 (24000/1001) FPS
Color space : YUV
Chroma subsampling : 4:2:0
Bit depth : 8 bits
Scan type : Progressive
Bits/(Pixel*Frame) : 0.208
Stream size : 4.61 GiB (92%)
Default : Yes
Forced : No
Color range : Limited
Color primaries : BT.709
Transfer characteristics : BT.709
Matrix coefficients : BT.709

Audio
ID : 2
Format : E-AC-3
Format/Info : Enhanced Audio Coding 3
Format settings, Endianness : Big
Codec ID : A_EAC3
Duration : 1 h 26 min
Bit rate mode : Constant
Bit rate : 640 kb/s
Channel(s) : 6 channels
Channel positions : Front: L C R, Side: L R, LFE
Sampling rate : 48.0 kHz
Frame rate : 187.500 FPS (256 spf)
Compression mode : Lossy
Stream size : 394 MiB (8%)
Language : English
Default : Yes
Forced : No

Text #1
ID : 3
Format : UTF-8
Codec ID : S_TEXT/UTF8
Codec ID/Info : UTF-8 Plain Text
Duration : 1 h 14 min
Bit rate : 26 b/s
Count of elements : 646
Stream size : 14.3 KiB (0%)
Language : English
Default : No
Forced : No

Text #2
ID : 4
Format : UTF-8
Codec ID : S_TEXT/UTF8
Codec ID/Info : UTF-8 Plain Text
Duration : 1 h 23 min
Bit rate : 30 b/s
Count of elements : 894
Stream size : 18.6 KiB (0%)
Title : SDH
Language : English
Default : No
Forced : No


WEB-DL 720p Screenshots

Stephanie (2017)

Stephanie (2017)

Stephanie (2017)


WEB-DL 1080p Screenshots

Stephanie (2017)

Stephanie (2017)

Stephanie (2017)


Come Visit My Blog (•‿•)