Sun, Sand & Romance (2017)

Posted By: Tavaz
720p (HD) / HDTV IMDb
Sun, Sand & Romance (2017)

Sun, Sand & Romance (2017)
HDTV | MKV | 1280x720 | English | H264 @ 4278 kbps | AC-3 @ 384 kbps | 1 h 23 min | 2.73 GiB
Subtitles: English
Genre: Romance, TV Movie

Kate is a driven publishing exec visiting a summer resort with her boyfriend Eric. There she runs into Shep, an old high school friend and fellow camp counsellor, who is now the Activities Director. Shep tries to convince her to take advantage of all the resort has to offer. She reluctantly caves when Eric is pulled away on business. As carefree Shep helps Kate rediscover her fun side; Kate helps Shep to stop hiding from life and realize his own potential. In the end Kate must make a choice.

sun.sand.and.romance.2017.720p.hdtv.x264-w4f.mkv (2.7 GB)



General
Unique ID : 254794145716767031111165561014554393884 (0xBFAF9146F658BED4AADD0A999DE6FD1C)
Complete name : ./sun.sand.and.romance.2017.720p.hdtv.x264-w4f.mkv
Format : Matroska
Format version : Version 4 / Version 2
File size : 2.73 GiB
Duration : 1 h 23 min
Overall bit rate : 4 664 kb/s
Encoded date : UTC 2017-09-05 04:23:01
Writing application : mkvmerge v9.4.0 ('Knurl') 64bit
Writing library : libebml v1.3.4 + libmatroska v1.4.5

Video
ID : 1
Format : AVC
Format/Info : Advanced Video Codec
Format profile : High@L4.1
Format settings : CABAC / 5 Ref Frames
Format settings, CABAC : Yes
Format settings, RefFrames : 5 frames
Codec ID : V_MPEG4/ISO/AVC
Duration : 1 h 23 min
Bit rate : 4 278 kb/s
Width : 1 280 pixels
Height : 720 pixels
Display aspect ratio : 16:9
Frame rate mode : Constant
Frame rate : 23.976 (24000/1001) FPS
Color space : YUV
Chroma subsampling : 4:2:0
Bit depth : 8 bits
Scan type : Progressive
Bits/(Pixel*Frame) : 0.194
Stream size : 2.51 GiB (92%)
Writing library : x264 core 152 r2851 ba24899
Encoding settings : cabac=1 / ref=5 / deblock=1:0:0 / analyse=0x3:0x113 / me=hex / subme=8 / psy=1 / psy_rd=1.00:0.00 / mixed_ref=1 / me_range=16 / chroma_me=1 / trellis=2 / 8x8dct=1 / cqm=0 / deadzone=21,11 / fast_pskip=1 / chroma_qp_offset=-2 / threads=12 / lookahead_threads=2 / sliced_threads=0 / nr=0 / decimate=1 / interlaced=0 / bluray_compat=0 / constrained_intra=0 / bframes=3 / b_pyramid=2 / b_adapt=1 / b_bias=0 / direct=3 / weightb=1 / open_gop=0 / weightp=2 / keyint=250 / keyint_min=23 / scenecut=40 / intra_refresh=0 / rc_lookahead=50 / rc=crf / mbtree=1 / crf=18.0 / qcomp=0.60 / qpmin=0 / qpmax=69 / qpstep=4 / ip_ratio=1.40 / aq=1:1.00
Default : Yes
Forced : No

Audio
ID : 2
Format : AC-3
Format/Info : Audio Coding 3
Format settings, Endianness : Big
Codec ID : A_AC3
Duration : 1 h 23 min
Bit rate mode : Constant
Bit rate : 384 kb/s
Channel(s) : 6 channels
Channel positions : Front: L C R, Side: L R, LFE
Sampling rate : 48.0 kHz
Frame rate : 31.250 FPS (1536 SPF)
Bit depth : 16 bits
Compression mode : Lossy
Stream size : 230 MiB (8%)
Language : English
Service kind : Complete Main
Default : Yes
Forced : No

Text
ID : 3
Format : UTF-8
Codec ID : S_TEXT/UTF8
Codec ID/Info : UTF-8 Plain Text
Duration : 1 h 23 min
Bit rate : 103 b/s
Count of elements : 1660
Stream size : 63.5 KiB (0%)
Language : English
Default : No
Forced : No





Sun, Sand & Romance (2017)


Sun, Sand & Romance (2017)


Sun, Sand & Romance (2017)


Sun, Sand & Romance (2017)


Sun, Sand & Romance (2017)