The Chronicles of Riddick (2004)

Posted By: Tavaz
1080p (FullHD) / BDRip IMDb
The Chronicles of Riddick (2004)

The Chronicles of Riddick (2004)
BDRip | MKV | 1920x800 | English | H265 @ 2502 kbps | AC-3 @ 448 kbps | 2 h 14 min | 2.76 GiB
Genre: Action, Science Fiction

After years of outrunning ruthless bounty hunters, escaped convict Riddick suddenly finds himself caught between opposing forces in a fight for the future of the human race. Now, waging incredible battles on fantastic and deadly worlds, this lone, reluctant hero will emerge as humanity's champion - and the last hope for a universe on the edge of annihilation.

0a43cf7299ce48fdaf149f5aa8f6a0ac.mkv (2.8 GB)



General
Unique ID : 233530430202215310772703557239897339917 (0xAFB053290E38890C83601852298C380D)
Complete name : ./0a43cf7299ce48fdaf149f5aa8f6a0ac.mkv
Format : Matroska
Format version : Version 2
File size : 2.76 GiB
Duration : 2 h 14 min
Overall bit rate : 2 952 kb/s
Movie name : The Chronicles of Riddick 2004 DriCut BluRay 10Bit 1080p DD5.1 H265-d3g
Encoded date : UTC 2018-02-10 02:23:40
Writing application : DVDFab 10.0.8.1
Writing library : libebml v1.3.4 + libmatroska v1.4.5

Video
ID : 1
Format : HEVC
Format/Info : High Efficiency Video Coding
Format profile : Main 10@L4@Main
Codec ID : V_MPEGH/ISO/HEVC
Duration : 2 h 14 min
Bit rate : 2 502 kb/s
Width : 1 920 pixels
Height : 800 pixels
Display aspect ratio : 2.40:1
Frame rate mode : Constant
Frame rate : 23.976 (24000/1001) FPS
Color space : YUV
Chroma subsampling : 4:2:0
Bit depth : 10 bits
Bits/(Pixel*Frame) : 0.068
Stream size : 2.34 GiB (85%)
Default : Yes
Forced : No
Color range : Limited
Color primaries : BT.709
Transfer characteristics : BT.709
Matrix coefficients : BT.709

Audio
ID : 2
Format : AC-3
Format/Info : Audio Coding 3
Format settings, Endianness : Big
Codec ID : A_AC3
Duration : 2 h 14 min
Bit rate mode : Constant
Bit rate : 448 kb/s
Channel(s) : 6 channels
Channel positions : Front: L C R, Side: L R, LFE
Sampling rate : 48.0 kHz
Frame rate : 31.250 FPS (1536 SPF)
Bit depth : 16 bits
Compression mode : Lossy
Stream size : 430 MiB (15%)
Language : English
Service kind : Complete Main
Default : Yes
Forced : No

Menu
00:00:00.000 : en:(01)00:00:00:000
00:07:03.423 : en:(02)00:07:03:423
00:15:29.720 : en:(03)00:15:29:720
00:20:56.713 : en:(04)00:20:56:713
00:31:25.258 : en:(05)00:31:25:258
00:38:50.286 : en:(06)00:38:50:286
00:47:16.375 : en:(07)00:47:16:375
00:53:36.296 : en:(08)00:53:36:296
01:04:27.780 : en:(09)01:04:27:780
01:17:17.007 : en:(10)01:17:17:007
01:29:03.087 : en:(11)01:29:03:087
01:32:40.429 : en:(12)01:32:40:429
01:41:11.607 : en:(13)01:41:11:607
01:48:13.153 : en:(14)01:48:13:153
01:59:58.649 : en:(15)01:59:58:649
02:04:06.021 : en:(16)02:04:06:021





The Chronicles of Riddick (2004)


The Chronicles of Riddick (2004)


The Chronicles of Riddick (2004)


The Chronicles of Riddick (2004)


The Chronicles of Riddick (2004)