The Coming War on China (2016)

Posted By: Tavaz
720p (HD) / WEB-DL IMDb
The Coming War on China (2016)

The Coming War on China (2016)
WEB-DL | MKV | 1280x720 | English | H264 @ 2357 kbps | E-AC-3 @ 224 kbps | 1 h 52 min | 2.03 GiB
WEB-DL | MKV | 1920x1080 | English | H264 @ 4414 kbps | E-AC-3 @ 224 kbps | 1 h 52 min | 3.65 GiB

Subtitles: English
Genre: Documentary

The Coming War on China is John Pilger's 60th film for ITV. Pilger reveals what the news doesn't - that the United States and the world's second economic power, China (both nuclear armed) are on the road to war. Pilger's film is a warning and an inspiring story of resistance.

a7cf840c8e5442c08fdb768585233a8e.mkv (2.0 GB)



General
Unique ID : 173325875020581057641630476602151036098 (0x8265596AABDDC1EC642E6D410E6C64C2)
Complete name : ./a7cf840c8e5442c08fdb768585233a8e.mkv
Format : Matroska
Format version : Version 4 / Version 2
File size : 2.03 GiB
Duration : 1 h 52 min
Overall bit rate : 2 584 kb/s
Encoded date : UTC 2018-07-11 04:53:44
Writing application : mkvmerge v21.0.0 ('Tardigrades Will Inherit The Earth') 64-bit
Writing library : libebml v1.3.5 + libmatroska v1.4.8

Video
ID : 1
Format : AVC
Format/Info : Advanced Video Codec
Format profile : High@L3.1
Format settings : CABAC / 5 Ref Frames
Format settings, CABAC : Yes
Format settings, RefFrames : 5 frames
Codec ID : V_MPEG4/ISO/AVC
Duration : 1 h 52 min
Bit rate : 2 358 kb/s
Width : 1 280 pixels
Height : 720 pixels
Display aspect ratio : 16:9
Frame rate mode : Constant
Frame rate : 25.000 FPS
Color space : YUV
Chroma subsampling : 4:2:0
Bit depth : 8 bits
Scan type : Progressive
Bits/(Pixel*Frame) : 0.102
Stream size : 1.86 GiB (91%)
Default : Yes
Forced : No
Color range : Limited
Color primaries : BT.709
Transfer characteristics : BT.709
Matrix coefficients : BT.709

Audio
ID : 2
Format : E-AC-3
Format/Info : Enhanced Audio Coding 3
Format settings, Endianness : Big
Codec ID : A_EAC3
Duration : 1 h 52 min
Bit rate mode : Constant
Bit rate : 224 kb/s
Channel(s) : 2 channels
Channel positions : Front: L R
Sampling rate : 48.0 kHz
Frame rate : 187.500 FPS (256 SPF)
Compression mode : Lossy
Stream size : 180 MiB (9%)
Language : English
Service kind : Complete Main
Default : Yes
Forced : No

Text
ID : 3
Format : UTF-8
Codec ID : S_TEXT/UTF8
Codec ID/Info : UTF-8 Plain Text
Duration : 1 h 52 min
Bit rate : 74 b/s
Count of elements : 1647
Stream size : 61.4 KiB (0%)
Title : SDH
Language : English
Default : No
Forced : No





The Coming War on China (2016)


The Coming War on China (2016)


The Coming War on China (2016)


The Coming War on China (2016)


The Coming War on China (2016)