The Iron Lady (2011)

Posted By: Tavaz
720p (HD) / BDRip IMDb
The Iron Lady (2011)

The Iron Lady (2011)
MKV | 1280x544 | English | H264 @ 3515 kbps | AC-3 @ 448 kbps | 1 h 44 min | 2.91 GiB
Genre: Drama, History

A look at the life of Margaret Thatcher, the former Prime Minister of the United Kingdom, with a focus on the price she paid for power.

The Iron Lady 2011 720p BRRip AC3 x264 MacGuffin.srt (99.4 KB)
The Iron Lady 2011 720p BRRip AC3 x264 MacGuffin.mkv (2.9 GB)



General
Unique ID : 220415922326875582055887354131879988013 (0xA5D2900030C18356B702B6B7FDEA8B2D)
Complete name : ./macguffin-til720p/The Iron Lady 2011 720p BRRip AC3 x264 MacGuffin.mkv
Format : Matroska
Format version : Version 2
File size : 2.91 GiB
Duration : 1 h 44 min
Overall bit rate : 3 962 kb/s
Encoded date : UTC 2012-03-21 19:56:19
Writing application : mkvmerge v5.4.0 ('Piper') built on Mar 10 2012 13:34:39
Writing library : libebml v1.2.3 + libmatroska v1.3.0

Video
ID : 1
Format : AVC
Format/Info : Advanced Video Codec
Format profile : High@L4.1
Format settings : CABAC / 8 Ref Frames
Format settings, CABAC : Yes
Format settings, RefFrames : 8 frames
Codec ID : V_MPEG4/ISO/AVC
Duration : 1 h 44 min
Bit rate : 3 515 kb/s
Width : 1 280 pixels
Height : 544 pixels
Display aspect ratio : 2.35:1
Frame rate mode : Constant
Frame rate : 23.976 (24000/1001) FPS
Color space : YUV
Chroma subsampling : 4:2:0
Bit depth : 8 bits
Scan type : Progressive
Bits/(Pixel*Frame) : 0.211
Stream size : 2.52 GiB (87%)
Title : Vid_1
Writing library : x264 core 122 r2184 5c85e0a
Encoding settings : cabac=1 / ref=8 / deblock=1:-2:-2 / analyse=0x3:0x133 / me=umh / subme=9 / psy=1 / psy_rd=1.30:0.20 / mixed_ref=1 / me_range=24 / chroma_me=1 / trellis=2 / 8x8dct=1 / cqm=0 / deadzone=21,11 / fast_pskip=0 / chroma_qp_offset=-4 / threads=6 / sliced_threads=0 / nr=0 / decimate=1 / interlaced=0 / bluray_compat=0 / constrained_intra=0 / bframes=3 / b_pyramid=2 / b_adapt=2 / b_bias=0 / direct=1 / weightb=1 / open_gop=0 / weightp=2 / keyint=240 / keyint_min=23 / scenecut=48 / intra_refresh=0 / rc_lookahead=50 / rc=2pass / mbtree=1 / bitrate=3515 / ratetol=1.5 / qcomp=0.60 / qpmin=0 / qpmax=69 / qpstep=4 / cplxblur=20.0 / qblur=0.5 / ip_ratio=1.40 / aq=1:1.50
Language : English
Default : Yes
Forced : No
Color range : Limited
Color primaries : BT.709
Transfer characteristics : BT.709
Matrix coefficients : BT.709

Audio
ID : 2
Format : AC-3
Format/Info : Audio Coding 3
Format settings, Endianness : Big
Codec ID : A_AC3
Duration : 1 h 44 min
Bit rate mode : Constant
Bit rate : 448 kb/s
Channel(s) : 6 channels
Channel positions : Front: L C R, Side: L R, LFE
Sampling rate : 48.0 kHz
Frame rate : 31.250 FPS (1536 SPF)
Bit depth : 16 bits
Compression mode : Lossy
Stream size : 336 MiB (11%)
Title : Au_0
Language : English
Service kind : Complete Main
Default : Yes
Forced : No





The Iron Lady (2011)


The Iron Lady (2011)


The Iron Lady (2011)


The Iron Lady (2011)


The Iron Lady (2011)