The Patriot (2000)

Posted By: Tavaz
The Patriot (2000)

The Patriot (2000)
MKV | 1280x544 | English / English | H264 @ 4395 kbps | AC-3 @ 576 kbps | 2 h 55 min | 6.44 GiB
Genre: Action, Drama, History, War

After proving himself on the field of battle in the French and Indian War, Benjamin Martin wants nothing more to do with such things, preferring the simple life of a farmer. But when his son Gabriel enlists in the army to defend their new nation, America, against the British, Benjamin reluctantly returns to his old life to protect his son.

THE PATRIOT 2000 720p.mkv (6.4 GB)
THE PATRIOT 2000 720p.srt (188.1 KB)
THE PATRIOT 2000 720p.1.srt (188.1 KB)



General
Unique ID : 296497611172974873655571220103962756747 (0xDF0F5CDF21EAC742CB6DC71D1FBF068B)
Complete name : ./THE PATRIOT 2000 720p.mkv
Format : Matroska
Format version : Version 4 / Version 2
File size : 6.44 GiB
Duration : 2 h 55 min
Overall bit rate mode : Variable
Overall bit rate : 5 268 kb/s
Writing application : Lavf56.30.100
Writing library : Lavf56.30.100
LABEL : Hoofdstuk 15
Language : eng
TCHAPTER : 166838560

Video
ID : 1
Format : AVC
Format/Info : Advanced Video Codec
Format profile : High@L4.1
Format settings : CABAC / 1 Ref Frames
Format settings, CABAC : Yes
Format settings, RefFrames : 1 frame
Codec ID : V_MPEG4/ISO/AVC
Duration : 2 h 55 min
Bit rate mode : Variable
Bit rate : 4 395 kb/s
Maximum bit rate : 5 520 kb/s
Width : 1 280 pixels
Height : 544 pixels
Display aspect ratio : 2.35:1
Frame rate mode : Constant
Frame rate : 23.976 (24000/1001) FPS
Color space : YUV
Chroma subsampling : 4:2:0
Bit depth : 8 bits
Scan type : Progressive
Bits/(Pixel*Frame) : 0.263
Stream size : 5.38 GiB (83%)
Title : h264_qsync_hw 1280x544 47/20
Language : English
Default : Yes
Forced : No
Track/Position : 0

Audio #1
ID : 2
Format : AC-3
Format/Info : Audio Coding 3
Format settings, Endianness : Big
Codec ID : A_AC3
Duration : 2 h 55 min
Bit rate mode : Constant
Bit rate : 576 kb/s
Channel(s) : 6 channels
Channel positions : Front: L C R, Side: L R, LFE
Sampling rate : 48.0 kHz
Frame rate : 31.250 FPS (1536 SPF)
Bit depth : 16 bits
Compression mode : Lossy
Stream size : 721 MiB (11%)
Title : ac3 48000Hz 6Ch.
Language : English
Service kind : Complete Main
Default : Yes
Forced : No
Track/Position : 1

Audio #2
ID : 3
Format : AC-3
Format/Info : Audio Coding 3
Format settings, Endianness : Big
Codec ID : A_AC3
Duration : 2 h 55 min
Bit rate mode : Constant
Bit rate : 192 kb/s
Channel(s) : 2 channels
Channel positions : Front: L R
Sampling rate : 48.0 kHz
Frame rate : 31.250 FPS (1536 SPF)
Bit depth : 16 bits
Compression mode : Lossy
Stream size : 240 MiB (4%)
Title : ac3 48000Hz 2Ch.
Language : English
Service kind : Complete Main
Default : Yes
Forced : No
Track/Position : 2

Text
ID : 4
Format : VobSub
Codec ID : S_VOBSUB
Codec ID/Info : Picture based subtitle format used on DVDs
Title : dvd_subtitle 1280x544
Default : Yes
Forced : No
Track/Position : 3

Menu
00:03:17.930 : :Hoofdstuk 1
00:12:05.723 : :Hoofdstuk 2
00:19:31.060 : :Hoofdstuk 3
00:28:35.348 : :Hoofdstuk 4
00:40:24.576 : :Hoofdstuk 5
00:53:36.277 : :Hoofdstuk 6
01:04:36.032 : :Hoofdstuk 7
01:16:41.748 : :Hoofdstuk 8
01:28:14.484 : :Hoofdstuk 9
01:37:35.274 : :Hoofdstuk 10
01:50:13.984 : :Hoofdstuk 11
02:05:37.631 : :Hoofdstuk 12
02:21:50.762 : :Hoofdstuk 13
02:36:08.429 : :Hoofdstuk 14
02:46:35.200 : :Hoofdstuk 15





The Patriot (2000)


The Patriot (2000)


The Patriot (2000)


The Patriot (2000)


The Patriot (2000)