The Wind and the Lion (1975)

Posted By: Tavaz
1080p (FullHD) / BDRip IMDb
The Wind and the Lion (1975)

The Wind and the Lion (1975)
BDRip | MKV | 1916x816 | English | H265 @ 2608 kbps | AC-3 @ 448 kbps | 1 h 59 min | 2.55 GiB
Subtitles: English
Genre: Action, Adventure, Drama, History

At the beginning of the 20th century an American woman is abducted in Morocco by Berbers. The attempts to free her range from diplomatic pressure to military intervention.

ac9c1fbd933f46178cb5c1748a8bf55c.mkv (2.6 GB)



General
Unique ID : 182226856436037363813387046057551564609 (0x89179DAEC7860529BA6BB2015E878F41)
Complete name : ./ac9c1fbd933f46178cb5c1748a8bf55c.mkv
Format : Matroska
Format version : Version 2
File size : 2.55 GiB
Duration : 1 h 59 min
Overall bit rate : 3 064 kb/s
Movie name : The Wind and the Lion 1975 BluRay 10Bit 1080p DD5.1 H265-d3g
Encoded date : UTC 2018-02-10 22:30:08
Writing application : DVDFab 10.0.8.1
Writing library : libebml v1.3.4 + libmatroska v1.4.5

Video
ID : 1
Format : HEVC
Format/Info : High Efficiency Video Coding
Format profile : Main 10@L4@Main
Codec ID : V_MPEGH/ISO/HEVC
Duration : 1 h 59 min
Bit rate : 2 608 kb/s
Width : 1 916 pixels
Height : 816 pixels
Display aspect ratio : 2.35:1
Frame rate mode : Constant
Frame rate : 23.976 (24000/1001) FPS
Color space : YUV
Chroma subsampling : 4:2:0
Bit depth : 10 bits
Bits/(Pixel*Frame) : 0.070
Stream size : 2.17 GiB (85%)
Default : Yes
Forced : No
Color range : Limited
Color primaries : BT.709
Transfer characteristics : BT.709
Matrix coefficients : BT.709

Audio
ID : 2
Format : AC-3
Format/Info : Audio Coding 3
Format settings, Endianness : Big
Codec ID : A_AC3
Duration : 1 h 59 min
Bit rate mode : Constant
Bit rate : 448 kb/s
Channel(s) : 6 channels
Channel positions : Front: L C R, Side: L R, LFE
Sampling rate : 48.0 kHz
Frame rate : 31.250 FPS (1536 SPF)
Bit depth : 16 bits
Compression mode : Lossy
Stream size : 382 MiB (15%)
Language : English
Service kind : Complete Main
Default : Yes
Forced : No

Text
ID : 3
Format : VobSub
Codec ID : S_VOBSUB
Codec ID/Info : Picture based subtitle format used on DVDs
Duration : 1 h 55 min
Bit rate : 5 998 b/s
Count of elements : 1275
Stream size : 4.94 MiB (0%)
Language : English
Default : No
Forced : No

Menu
00:00:00.000 : en:(01)00:00:00:000
00:01:59.953 : en:(02)00:01:59:953
00:04:54.294 : en:(03)00:04:54:294
00:08:09.238 : en:(04)00:08:09:238
00:10:40.306 : en:(05)00:10:40:306
00:13:48.744 : en:(06)00:13:48:744
00:19:05.727 : en:(07)00:19:05:727
00:21:35.794 : en:(08)00:21:35:794
00:27:16.551 : en:(09)00:27:16:551
00:29:40.278 : en:(10)00:29:40:278
00:32:41.376 : en:(11)00:32:41:376
00:38:07.910 : en:(12)00:38:07:910
00:41:09.091 : en:(13)00:41:09:091
00:46:51.558 : en:(14)00:46:51:558
00:50:57.888 : en:(15)00:50:57:888
00:54:37.274 : en:(16)00:54:37:274
00:59:12.382 : en:(17)00:59:12:382
01:02:20.570 : en:(18)01:02:20:570
01:05:39.852 : en:(19)01:05:39:852
01:09:24.785 : en:(20)01:09:24:785
01:11:40.296 : en:(21)01:11:40:296
01:16:32.337 : en:(22)01:16:32:337
01:20:28.323 : en:(23)01:20:28:323
01:24:23.975 : en:(24)01:24:23:975
01:27:26.908 : en:(25)01:27:26:908
01:31:49.504 : en:(26)01:31:49:504
01:35:47.742 : en:(27)01:35:47:742
01:41:59.113 : en:(28)01:41:59:113
01:45:36.997 : en:(29)01:45:36:997
01:50:13.440 : en:(30)01:50:13:440
01:54:18.852 : en:(31)01:54:18:852
01:57:45.058 : en:(32)01:57:45:058





The Wind and the Lion (1975)


The Wind and the Lion (1975)


The Wind and the Lion (1975)


The Wind and the Lion (1975)


The Wind and the Lion (1975)