The New 8-bit Heroes (2016)

Posted By: JohnSmith
1080p (FullHD) / WEB-DL IMDb
The New 8-bit Heroes (2016)

The New 8-bit Heroes (2016)
HDRip | MP4 / AVC@1100 kb/s | 720x400 | 1h 51mn | 1.06 GB | English: AAC, 256 kb/s (2 ch)
WEB-DL 720p | MKV / AVC@2693 kb/s | 1280x720 | 1h 51mn | 2.2 GB
English: AC3, 224 kb/s (2 ch) | Subtitles: English
WEB-DL 1080p | MKV / AVC@7470 kb/s | 1920x1080 | 1h 51mn | 5.98 GB
English: AC3, 224 kb/s (2 ch) | Subtitles: English
Genre: Documentary

Modern creatives must retrofit their skills to program a new game for a 30 year old game console.




General
Complete name : D:\Downloads\The.New.8-bit.Heroes.2016.WEBRip.x264-ION10\The.New.8-bit.Heroes.2016.WEBRip.x264-ION10.mp4
Format : MPEG-4
Format profile : Base Media
Codec ID : isom (isom/iso2/avc1/mp41)
File size : 1.06 GiB
Duration : 1 h 51 min
Overall bit rate : 1 368 kb/s
Movie name : RARBG - The.New.8-bit.Heroes.2016.WEBRip.x264-ION10
Encoded date : UTC 2018-01-13 12:40:59
Tagged date : UTC 2018-01-13 12:40:59
Writing application : Lavf57.83.100
Comment : RARBG - The.New.8-bit.Heroes.2016.WEBRip.x264-ION10

Video
ID : 1
Format : AVC
Format/Info : Advanced Video Codec
Format profile : High@L3.1
Format settings, CABAC : Yes
Format settings, ReFrames : 5 frames
Codec ID : avc1
Codec ID/Info : Advanced Video Coding
Duration : 1 h 51 min
Bit rate : 1 100 kb/s
Width : 720 pixels
Height : 400 pixels
Display aspect ratio : 16:9
Frame rate mode : Constant
Frame rate : 23.976 (24000/1001) FPS
Color space : YUV
Chroma subsampling : 4:2:0
Bit depth : 8 bits
Scan type : Progressive
Bits/(Pixel*Frame) : 0.159
Stream size : 880 MiB (81%)
Title : RARBG - The.New.8-bit.Heroes.2016.WEBRip.x264-ION10
Writing library : x264 core 152 r2851M ba24899
Encoding settings : cabac=1 / ref=5 / deblock=1:-1:-1 / analyse=0x3:0x113 / me=umh / subme=9 / psy=1 / psy_rd=1.00:0.15 / mixed_ref=1 / me_range=16 / chroma_me=1 / trellis=2 / 8x8dct=1 / cqm=0 / deadzone=21,11 / fast_pskip=1 / chroma_qp_offset=-3 / threads=12 / lookahead_threads=1 / sliced_threads=0 / nr=0 / decimate=1 / interlaced=0 / bluray_compat=0 / constrained_intra=0 / bframes=3 / b_pyramid=2 / b_adapt=2 / b_bias=0 / direct=3 / weightb=1 / open_gop=0 / weightp=2 / keyint=250 / keyint_min=23 / scenecut=40 / intra_refresh=0 / rc_lookahead=50 / rc=abr / mbtree=1 / bitrate=1100 / ratetol=1.0 / qcomp=0.60 / qpmin=0 / qpmax=69 / qpstep=4 / ip_ratio=1.40 / aq=1:1.00
Encoded date : UTC 2018-01-13 12:40:59
Tagged date : UTC 2018-01-13 12:40:59

Audio
ID : 2
Format : AAC
Format/Info : Advanced Audio Codec
Format profile : LC
Codec ID : 40
Duration : 1 h 51 min
Duration_LastFrame : -11 ms
Bit rate mode : Constant
Bit rate : 256 kb/s
Channel(s) : 2 channels
Channel positions : Front: L R
Sampling rate : 48.0 kHz
Frame rate : 46.875 FPS (1024 spf)
Compression mode : Lossy
Stream size : 204 MiB (19%)
Title : RARBG - The.New.8-bit.Heroes.2016.WEBRip.x264-ION10
Language : English
Default : Yes
Alternate group : 1
Encoded date : UTC 2018-01-13 12:40:59
Tagged date : UTC 2018-01-13 12:40:59





General
Unique ID : 327219170760825461441162210055602341151 (0xF62C1EB408695E35339F1D260190851F)
Complete name : D:\Downloads\The.New.8-bit.Heroes.2016.720p.AMZN.WEBRip.DDP2.0.x264-NTb\The.New.8-bit.Heroes.2016.720p.AMZN.WEB-DL.DDP2.0.H.264-NTb.mkv
Format : Matroska
Format version : Version 4 / Version 2
File size : 2.27 GiB
Duration : 1 h 51 min
Overall bit rate mode : Variable
Overall bit rate : 2 920 kb/s
Encoded date : UTC 2018-01-09 01:02:30
Writing application : mkvmerge v19.0.0 ('Brave Captain') 64-bit
Writing library : libebml v1.3.5 + libmatroska v1.4.8

Video
ID : 1
Format : AVC
Format/Info : Advanced Video Codec
Format profile : High@L3.1
Format settings, CABAC : Yes
Format settings, ReFrames : 5 frames
Codec ID : V_MPEG4/ISO/AVC
Duration : 1 h 51 min
Bit rate mode : Variable
Bit rate : 2 693 kb/s
Maximum bit rate : 4 500 kb/s
Width : 1 280 pixels
Height : 720 pixels
Display aspect ratio : 16:9
Frame rate mode : Constant
Frame rate : 23.976 (24000/1001) FPS
Color space : YUV
Chroma subsampling : 4:2:0
Bit depth : 8 bits
Scan type : Progressive
Bits/(Pixel*Frame) : 0.122
Stream size : 2.09 GiB (92%)
Default : Yes
Forced : No
Color range : Limited
Color primaries : BT.709
Transfer characteristics : BT.709
Matrix coefficients : BT.709

Audio
ID : 2
Format : E-AC-3
Format/Info : Enhanced Audio Coding 3
Format settings, Endianness : Big
Codec ID : A_EAC3
Duration : 1 h 51 min
Bit rate mode : Constant
Bit rate : 224 kb/s
Channel(s) : 2 channels
Channel positions : Front: L R
Sampling rate : 48.0 kHz
Frame rate : 187.500 FPS (256 spf)
Compression mode : Lossy
Stream size : 178 MiB (8%)
Language : English
Service kind : Complete Main
Default : Yes
Forced : No

Text #1
ID : 3
Format : UTF-8
Codec ID : S_TEXT/UTF8
Codec ID/Info : UTF-8 Plain Text
Duration : 1 h 47 min
Bit rate : 117 b/s
Count of elements : 2462
Stream size : 91.9 KiB (0%)
Language : English
Default : No
Forced : No

Text #2
ID : 4
Format : UTF-8
Codec ID : S_TEXT/UTF8
Codec ID/Info : UTF-8 Plain Text
Duration : 1 h 48 min
Bit rate : 120 b/s
Count of elements : 2587
Stream size : 95.3 KiB (0%)
Title : SDH
Language : English
Default : No
Forced : No





General
Unique ID : 124041949057951279293175078123021669964 (0x5D519C4381FB97E58521E8EE477A164C)
Complete name : D:\Downloads\The.New.8-bit.Heroes.2016.1080p.AMZN.WEBRip.DDP2.0.x264-NTb\The.New.8-bit.Heroes.2016.1080p.AMZN.WEB-DL.DDP2.0.H.264-NTb.mkv
Format : Matroska
Format version : Version 4 / Version 2
File size : 5.98 GiB
Duration : 1 h 51 min
Overall bit rate mode : Variable
Overall bit rate : 7 697 kb/s
Encoded date : UTC 2018-01-09 00:58:31
Writing application : mkvmerge v19.0.0 ('Brave Captain') 64-bit
Writing library : libebml v1.3.5 + libmatroska v1.4.8

Video
ID : 1
Format : AVC
Format/Info : Advanced Video Codec
Format profile : High@L4
Format settings, CABAC : Yes
Format settings, ReFrames : 4 frames
Codec ID : V_MPEG4/ISO/AVC
Duration : 1 h 51 min
Bit rate mode : Variable
Bit rate : 7 471 kb/s
Maximum bit rate : 15.0 Mb/s
Width : 1 920 pixels
Height : 1 080 pixels
Display aspect ratio : 16:9
Frame rate mode : Constant
Frame rate : 23.976 (24000/1001) FPS
Color space : YUV
Chroma subsampling : 4:2:0
Bit depth : 8 bits
Scan type : Progressive
Bits/(Pixel*Frame) : 0.150
Stream size : 5.80 GiB (97%)
Default : Yes
Forced : No
Color range : Limited
Color primaries : BT.709
Transfer characteristics : BT.709
Matrix coefficients : BT.709

Audio
ID : 2
Format : E-AC-3
Format/Info : Enhanced Audio Coding 3
Format settings, Endianness : Big
Codec ID : A_EAC3
Duration : 1 h 51 min
Bit rate mode : Constant
Bit rate : 224 kb/s
Channel(s) : 2 channels
Channel positions : Front: L R
Sampling rate : 48.0 kHz
Frame rate : 187.500 FPS (256 spf)
Compression mode : Lossy
Stream size : 178 MiB (3%)
Language : English
Service kind : Complete Main
Default : Yes
Forced : No

Text #1
ID : 3
Format : UTF-8
Codec ID : S_TEXT/UTF8
Codec ID/Info : UTF-8 Plain Text
Duration : 1 h 47 min
Bit rate : 117 b/s
Count of elements : 2462
Stream size : 91.9 KiB (0%)
Language : English
Default : No
Forced : No

Text #2
ID : 4
Format : UTF-8
Codec ID : S_TEXT/UTF8
Codec ID/Info : UTF-8 Plain Text
Duration : 1 h 48 min
Bit rate : 120 b/s
Count of elements : 2587
Stream size : 95.3 KiB (0%)
Title : SDH
Language : English
Default : No
Forced : No




Screenshots HDRip

The New 8-bit Heroes (2016)

The New 8-bit Heroes (2016)

The New 8-bit Heroes (2016)


Screenshots WEB-DL 720p

The New 8-bit Heroes (2016)

The New 8-bit Heroes (2016)

The New 8-bit Heroes (2016)


Screenshots WEB-DL 1080p

The New 8-bit Heroes (2016)

The New 8-bit Heroes (2016)

The New 8-bit Heroes (2016)