Time Bandits (1981)

Posted By: Tavaz
Time Bandits (1981)

Time Bandits (1981)
MKV | 1920x1080 | H265 @ 3338 kbps | AC-3 @ 256 kbps | 1 h 56 min | 2.97 GiB
Genre: Adventure, Comedy, Fantasy, Science Fiction, Family

Young history buff Kevin can scarcely believe it when six dwarfs emerge from his closet one night. Former employees of the Supreme Being, they've purloined a map charting all of the holes in the fabric of time and are using it to steal treasures from different historical eras. Taking Kevin with them, they variously drop in on Napoleon, Robin Hood and King Agamemnon before the Supreme Being catches up with them.

fb7181620cd3421493f20ed3624cb98b.mkv (3.0 GB)



General
Unique ID : 332135803350795800272047166042727237067 (0xF9DF0767CD47363A24BE04828F77C5CB)
Complete name : ./fb7181620cd3421493f20ed3624cb98b.mkv
Format : Matroska
Format version : Version 4 / Version 2
File size : 2.97 GiB
Duration : 1 h 56 min
Overall bit rate : 3 668 kb/s
Writing application : Lavf57.82.100
Writing library : Lavf57.82.100
ErrorDetectionType : Per level 1

Video
ID : 1
Format : HEVC
Format/Info : High Efficiency Video Coding
Format profile : Main@L4@Main
Codec ID : V_MPEGH/ISO/HEVC
Duration : 1 h 56 min
Bit rate : 3 339 kb/s
Width : 1 920 pixels
Height : 1 080 pixels
Display aspect ratio : 16:9
Frame rate mode : Constant
Frame rate : 23.976 (24000/1001) FPS
Color space : YUV
Chroma subsampling : 4:2:0
Bit depth : 8 bits
Bits/(Pixel*Frame) : 0.067
Stream size : 2.71 GiB (91%)
Default : Yes
Forced : No
Color range : Limited
Color primaries : BT.709
Transfer characteristics : BT.709
Matrix coefficients : BT.709

Audio
ID : 2
Format : AC-3
Format/Info : Audio Coding 3
Format settings, Endianness : Big
Codec ID : A_AC3
Duration : 1 h 56 min
Bit rate mode : Constant
Bit rate : 256 kb/s
Channel(s) : 2 channels
Channel positions : Front: L R
Sampling rate : 48.0 kHz
Frame rate : 31.250 FPS (1536 SPF)
Bit depth : 16 bits
Compression mode : Lossy
Stream size : 213 MiB (7%)
Service kind : Complete Main
Default : Yes
Forced : No

Menu





Time Bandits (1981)


Time Bandits (1981)


Time Bandits (1981)


Time Bandits (1981)


Time Bandits (1981)