Vi presento Christopher Robin (2017)

Posted By: JohnSmith
SD / WEB-DL IMDb
Vi presento Christopher Robin (2017)

Vi presento Christopher Robin / Goodbye Christopher Robin (2017)
HDRip MD | AVI / XviD@1590 kb/s | 720x384 | 1h 47mn | 1.29 GB | Italian (dubbed): MP3, 128 kb/s (2 ch)
Genre: Biography | Family | History

Ispirandosi ai giocattoli del figlioletto Christopher Robin, lo scrittore A.A. Milne crea il magico mondo di Winnie the Pooh. Insieme alla madre Daphne e alla tata Olivia, Christopher Robin è travolto dal successo internazionale dei libri del padre, capaci di infondere speranza e conforto nell'Inghilterra reduce dalla Prima guerra mondiale. Con gli occhi di tutti puntati sul piccolo, la famiglia sarà costretta a pagare un alto prezzo.

IMDB - 2 wins & 1 nomination.



General
Complete name : A:\Vi.Presento.Christopher.Robin.2017.iTALiAN.MD.WEBDL.XviD-iSTANCE.avi
Format : AVI
Format/Info : Audio Video Interleave
File size : 1.29 GiB
Duration : 1 h 47 min
Overall bit rate : 1 724 kb/s
Writing application : Lavf57.83.100
Writing library : VirtualDub build 35491/release

Video
ID : 0
Format : MPEG-4 Visual
Format profile : Advanced Simple@L5
Format settings, BVOP : 2
Format settings, QPel : No
Format settings, GMC : No warppoints
Format settings, Matrix : Default (MPEG)
Codec ID : XVID
Codec ID/Hint : XviD
Duration : 1 h 47 min
Bit rate : 1 587 kb/s
Width : 720 pixels
Height : 384 pixels
Display aspect ratio : 1.85:1
Frame rate : 23.976 (24000/1001) FPS
Color space : YUV
Chroma subsampling : 4:2:0
Bit depth : 8 bits
Scan type : Progressive
Compression mode : Lossy
Bits/(Pixel*Frame) : 0.239
Stream size : 1.19 GiB (92%)
Writing library : XviD 67

Audio
ID : 1
Format : MPEG Audio
Format version : Version 1
Format profile : Layer 3
Mode : Joint stereo
Mode extension : MS Stereo
Codec ID : 55
Codec ID/Hint : MP3
Duration : 1 h 46 min
Bit rate mode : Constant
Bit rate : 128 kb/s
Channel(s) : 2 channels
Sampling rate : 48.0 kHz
Compression mode : Lossy
Stream size : 98.0 MiB (7%)
Alignment : Split accross interleaves
Interleave, duration : 42 ms (1.00 video frame)
Interleave, preload duratio : 500 ms
Writing library : LAME3.99r
Encoding settings : -m j -V 4 -q 3 -lowpass 17 -b 128




Screenshots

Vi presento Christopher Robin (2017)

Vi presento Christopher Robin (2017)

Vi presento Christopher Robin (2017)