WALL·E (2008) [10 bit]

Posted By: Tavaz
1080p (FullHD) / BDRip IMDb
WALL·E (2008) [10 bit]

WALL·E (2008) [10 bit]
BDRip | MKV | 1920x802 | English | H265 @ 1202 kbps | DTS @ 1509 kbps | 1 h 38 min | 1.90 GiB
Subtitles: English
Genre: Animation, Family

WALL·E is the last robot left on an Earth that has been overrun with garbage and all humans have fled to outer space. For 700 years he has continued to try and clean up the mess, but has developed some rather interesting human-like qualities. When a ship arrives with a sleek new type of robot, WALL·E thinks he's finally found a friend and stows away on the ship when it leaves.

WALL-E.2008.1080p.BluRay.DTS.x265.10bit.HEVC.mkv (1.9 GB)



General
Unique ID : 208563371094649916062928482344912037439 (0x9CE7D81B7B94F194A6E6848C346C263F)
Complete name : ./WALL-E.2008.1080p.BluRay.DTS.x265.10bit.HEVC.mkv
Format : Matroska
Format version : Version 4 / Version 2
File size : 1.90 GiB
Duration : 1 h 38 min
Overall bit rate : 2 766 kb/s
Movie name : WALL-E (2008)
Encoded date : UTC 2018-06-11 01:37:52 / UTC 2018-06-10T03:15:40Z
Writing application : mkvmerge v15.0.0 ('Duel with the Devil') 64-bit
Writing library : libebml v1.3.5 + libmatroska v1.4.5 / Lavf57.7.2

Video
ID : 1
Format : HEVC
Format/Info : High Efficiency Video Coding
Format profile : Main 10@L4@Main
Codec ID : V_MPEGH/ISO/HEVC
Duration : 1 h 38 min
Bit rate : 1 202 kb/s
Width : 1 920 pixels
Height : 802 pixels
Display aspect ratio : 2.40:1
Frame rate mode : Constant
Frame rate : 23.976 (24000/1001) FPS
Color space : YUV
Chroma subsampling : 4:2:0
Bit depth : 10 bits
Bits/(Pixel*Frame) : 0.033
Stream size : 844 MiB (43%)
Writing library : x265 2.6:[Windows][GCC 7.1.0][64 bit] 10bit
Encoding settings : cpuid=1173503 / frame-threads=4 / numa-pools=16 / wpp / no-pmode / no-pme / no-psnr / no-ssim / log-level=2 / input-csp=1 / input-res=1920x802 / interlace=0 / total-frames=0 / level-idc=0 / high-tier=1 / uhd-bd=0 / ref=3 / no-allow-non-conformance / no-repeat-headers / annexb / no-aud / no-hrd / info / hash=0 / no-temporal-layers / open-gop / min-keyint=24 / keyint=240 / bframes=4 / b-adapt=0 / b-pyramid / bframe-bias=0 / rc-lookahead=15 / lookahead-slices=5 / scenecut=40 / no-intra-refresh / ctu=64 / min-cu-size=8 / no-rect / no-amp / max-tu-size=32 / tu-inter-depth=1 / tu-intra-depth=1 / limit-tu=0 / rdoq-level=0 / dynamic-rd=0.00 / no-ssim-rd / signhide / no-tskip / nr-intra=0 / nr-inter=0 / no-constrained-intra / strong-intra-smoothing / max-merge=2 / limit-refs=3 / no-limit-modes / me=1 / subme=2 / merange=57 / temporal-mvp / weightp / no-weightb / no-analyze-src-pics / deblock=0:0 / sao / no-sao-non-deblock / rd=2 / no-early-skip / rskip / fast-intra / no-tskip-fast / no-cu-lossless / no-b-intra / no-splitrd-skip / rdpenalty=0 / psy-rd=2.00 / psy-rdoq=0.00 / no-rd-refine / analysis-reuse-mode=0 / no-lossless / cbqpoffs=0 / crqpoffs=0 / rc=crf / crf=23.0 / qcomp=0.60 / qpstep=4 / stats-write=0 / stats-read=0 / ipratio=1.40 / pbratio=1.30 / aq-mode=1 / aq-strength=1.00 / cutree / zone-count=0 / no-strict-cbr / qg-size=32 / no-rc-grain / qpmax=69 / qpmin=0 / no-const-vbv / sar=1 / overscan=0 / videoformat=5 / range=0 / colorprim=1 / transfer=1 / colormatrix=1 / chromaloc=0 / display-window=0 / max-cll=0,0 / min-luma=0 / max-luma=1023 / log2-max-poc-lsb=8 / vui-timing-info / vui-hrd-info / slices=1 / no-opt-qp-pps / no-opt-ref-list-length-pps / no-multi-pass-opt-rps / scenecut-bias=0.05 / no-opt-cu-delta-qp / no-aq-motion / no-hdr / no-hdr-opt / no-dhdr10-opt / analysis-reuse-level=5 / scale-factor=0 / refine-intra=0 / refine-inter=0 / refine-mv=0 / no-limit-sao / ctu-info=0 / no-lowpass-dct / refine-mv-type=0 / copy-pic=1
Default : Yes
Forced : No
Color range : Limited
Color primaries : BT.709
Transfer characteristics : BT.709
Matrix coefficients : BT.709
Statistics Tags Issue : mkvmerge v15.0.0 ('Duel with the Devil') 64-bit 2018-06-11 01:37:52 / mkvmerge v15.0.0 ('Duel with the Devil') 64-bit 2018-06-11 01:37:52 / UTC 2018-06-10T03:15:40Z
FromStats_BitRate : 1251471
FromStats_Duration : 01:38:11.928000000
FromStats_FrameCount : 141265
FromStats_StreamSize : 921697777

Audio
ID : 2
Format : DTS
Format/Info : Digital Theater Systems
Format profile : ES Matrix / Core
Mode : 16
Format settings, Endianness : Big
Codec ID : A_DTS
Duration : 1 h 38 min
Bit rate mode : Constant
Bit rate : 1 509 kb/s
Channel(s) : 7 channels / 6 channels
Channel positions : Front: L C R, Side: L R, Back: C, LFE / Front: L C R, Side: L R, LFE
Sampling rate : 48.0 kHz
Frame rate : 93.750 FPS (512 SPF)
Bit depth : 24 bits
Compression mode : Lossy
Stream size : 1.04 GiB (55%)
Title : Surround
Language : English
Default : Yes
Forced : No
Statistics Tags Issue : mkvmerge v15.0.0 ('Duel with the Devil') 64-bit 2018-06-11 01:37:52 / mkvmerge v15.0.0 ('Duel with the Devil') 64-bit 2018-06-11 01:37:52 / UTC 2018-06-10T03:15:40Z
FromStats_BitRate : 1509000
FromStats_Duration : 01:38:11.936000000
FromStats_FrameCount : 552369
FromStats_StreamSize : 1111366428

Text
ID : 3
Format : PGS
Muxing mode : zlib
Codec ID : S_HDMV/PGS
Codec ID/Info : Picture based subtitle format used on BDs/HD-DVDs
Language : English
Default : No
Forced : No
Statistics Tags Issue : mkvmerge v15.0.0 ('Duel with the Devil') 64-bit 2018-06-11 01:37:52 / mkvmerge v15.0.0 ('Duel with the Devil') 64-bit 2018-06-11 01:37:52 / UTC 2018-06-10T03:15:40Z
FromStats_BitRate : 11354
FromStats_Duration : 01:33:27.936000000
FromStats_FrameCount : 981
FromStats_StreamSize : 7959735

Menu
00:00:00.000 : :Chapter 1
00:03:36.383 : :Chapter 2
00:05:49.683 : :Chapter 3
00:09:18.767 : :Chapter 4
00:12:03.473 : :Chapter 5
00:17:56.576 : :Chapter 6
00:19:33.381 : :Chapter 7
00:21:10.144 : :Chapter 8
00:23:46.842 : :Chapter 9
00:29:18.048 : :Chapter 10
00:31:25.092 : :Chapter 11
00:33:27.756 : :Chapter 12
00:35:20.118 : :Chapter 13
00:38:49.536 : :Chapter 14
00:42:53.488 : :Chapter 15
00:43:31.651 : :Chapter 16
00:51:08.941 : :Chapter 17
00:52:07.583 : :Chapter 18
00:54:47.451 : :Chapter 19
00:56:05.821 : :Chapter 20
00:57:58.058 : :Chapter 21
00:58:41.226 : :Chapter 22
01:02:14.898 : :Chapter 23
01:03:21.131 : :Chapter 24
01:05:49.696 : :Chapter 25
01:11:44.884 : :Chapter 26
01:15:54.258 : :Chapter 27
01:19:22.800 : :Chapter 28
01:20:14.685 : :Chapter 29
01:24:14.091 : :Chapter 30
01:25:45.766 : :Chapter 31
01:30:17.621 : :Chapter 32





WALL·E (2008) [10 bit]


WALL·E (2008) [10 bit]


WALL·E (2008) [10 bit]


WALL·E (2008) [10 bit]


WALL·E (2008) [10 bit]