Channel 5 - Concorde Series 1 (2017)

Posted By: notbanned
720p (HD) / HDTV
Channel 5 - Concorde Series 1 (2017)

Channel 5 - Concorde Series 1 (2017)
HDTV | 1280x720 | .MKV/AVC @ 2173 Kbps | 2x~44min | 1.62 GiB
Audio: English AC3 384 kbps, 6 channels | Subs: None
Genre: Documentary

How Concorde became the world's only supersonic airliner.
Part 1: Designing the Dream
The designers, pilots and passengers tell the incredible story of how the Anglo-French Concorde saw off competition from the Americans and Soviets to become the world's only supersonic airliner. For more than a quarter of a century and unmatched to this day, Concorde was the undisputed queen of the skies.

Part 2: Triumph and Tragedy
By the early 1980s, Concorde was admired the world over. It seemed that it was loved by all, but not by the management of British Airways. They were horrified that it was losing tens of millions a year and knew that something must be done.

General
Unique ID : 0 (0x0)
Complete name : concorde.s01e01.Designing.the.Dream.720p.mkv
Format : Matroska
Format version : Version 4 / Version 2
File size : 836 MiB
Duration : 44 min 46 s
Overall bit rate : 2 609 kb/s

Video
ID : 1
Format : AVC
Format/Info : Advanced Video Codec
Format profile : High@L4.1
Format settings, CABAC : Yes
Format settings, ReFrames : 5 frames
Codec ID : V_MPEG4/ISO/AVC
Duration : 44 min 46 s
Bit rate : 2 173 kb/s
Width : 1 280 pixels
Height : 720 pixels
Display aspect ratio : 16:9
Frame rate mode : Constant
Frame rate : 25.000 FPS
Color space : YUV
Chroma subsampling : 4:2:0
Bit depth : 8 bits
Scan type : Progressive
Bits/(Pixel*Frame) : 0.094
Stream size : 696 MiB (83%)
Writing library : x264 core 152 r2851 ba24899
Encoding settings : cabac=1 / ref=5 / deblock=1:0:0 / analyse=0x3:0x113 / me=hex / subme=8 / psy=1 / psy_rd=1.00:0.00 / mixed_ref=1 / me_range=16 / chroma_me=1 / trellis=2 / 8x8dct=1 / cqm=0 / deadzone=21,11 / fast_pskip=1 / chroma_qp_offset=-2 / threads=12 / lookahead_threads=2 / sliced_threads=0 / nr=0 / decimate=1 / interlaced=0 / bluray_compat=0 / constrained_intra=0 / bframes=3 / b_pyramid=2 / b_adapt=1 / b_bias=0 / direct=3 / weightb=1 / open_gop=0 / weightp=2 / keyint=250 / keyint_min=25 / scenecut=40 / intra_refresh=0 / rc_lookahead=50 / rc=crf / mbtree=1 / crf=20.0 / qcomp=0.60 / qpmin=0 / qpmax=69 / qpstep=4 / ip_ratio=1.40 / aq=1:1.00
Language : English
Default : Yes
Forced : No
Color range : Limited
Matrix coefficients : BT.709

Audio
ID : 2
Format : AC-3
Format/Info : Audio Coding 3
Format settings, Endianness : Big
Codec ID : A_AC3
Duration : 44 min 46 s
Bit rate mode : Constant
Bit rate : 384 kb/s
Channel(s) : 6 channels
Channel positions : Front: L C R, Side: L R, LFE
Sampling rate : 48.0 kHz
Frame rate : 31.250 FPS (1536 spf)
Bit depth : 16 bits
Compression mode : Lossy
Stream size : 123 MiB (15%)
Language : English
Service kind : Complete Main
Default : Yes
Forced : No


Screenshots:

Channel 5 - Concorde Series 1 (2017)

Channel 5 - Concorde Series 1 (2017)

Channel 5 - Concorde Series 1 (2017)

Channel 5 - Concorde Series 1 (2017)