Netflix - Drug Lords: Series 2 (2018)

Posted By: notbanned
720p (HD) / HDTV IMDb
Netflix - Drug Lords: Series 2 (2018)

Netflix - Drug Lords: Series 2 (2018)
HDTV | 1280x720 | .MP4/AVC @ 3250 Kbps | 4x~44min | 3.97 GiB
Audio: English AAC 157 kbps, 2 channels | Subs: English
Genre: Documentary

Each episode of the show explores the life of a different drug lord, as well as their organizations and the law enforcement officials who eventually brought them down.

Part 1: El Chapo
After idolizing drug lords as a child, Joaqu'n "El Chapo" Guzm'n becomes one of history's most notorious kingpins, known for his audacious escapes

Part 2: Jemeker Thompson: Crack Queen of L.A.
Once the undisputed crack queen of LA, Jemeker Thompson speaks about her unorthodox reign and how her maternal instinct led to her downfall.

Part 3: Christopher Coke: Jamaica’s Narco Prince
Driven by an all-consuming desire for power, Jamaica's Christopher Coke considers himself a modern-day Robin Hood – until authorities take him down.

Part 4: Klaas Bruinsma: Europe’s Hash King
Thought by many to be a pushover due to his boyish looks and wealthy upbringing, Klaas Bruinsma proves himself a sadistic and sinister drug lord.

General
Complete name : dg.Lords.Series.2.1of4.El.Chapo.720p.mp4
Format : MPEG-4
Format profile : Base Media
Codec ID : isom (isom)
File size : 1.02 GiB
Duration : 44 min 12 s
Overall bit rate mode : Variable
Overall bit rate : 3 288 kb/s

Video
ID : 1
Format : AVC
Format/Info : Advanced Video Codec
Format profile : High@L4.1
Format settings, CABAC : Yes
Format settings, ReFrames : 4 frames
Codec ID : avc1
Codec ID/Info : Advanced Video Coding
Duration : 44 min 12 s
Bit rate : 3 250 kb/s
Maximum bit rate : 37.5 Mb/s
Width : 1 280 pixels
Height : 720 pixels
Display aspect ratio : 16:9
Frame rate mode : Constant
Frame rate : 25.000 FPS
Color space : YUV
Chroma subsampling : 4:2:0
Bit depth : 8 bits
Scan type : Progressive
Bits/(Pixel*Frame) : 0.141
Stream size : 989 MiB (95%)
Encoding settings : cabac=1 / ref=1 / deblock=1:0:0 / analyse=0x3:0x113 / me=hex / subme=2 / psy=1 / psy_rd=1.00:0.00 / mixed_ref=0 / me_range=16 / chroma_me=1 / trellis=0 / 8x8dct=1 / cqm=0 / deadzone=21,11 / fast_pskip=1 / chroma_qp_offset=0 / threads=6 / lookahead_threads=2 / sliced_threads=0 / nr=0 / decimate=1 / interlaced=0 / bluray_compat=0 / constrained_intra=0 / bframes=3 / b_pyramid=2 / b_adapt=1 / b_bias=0 / direct=1 / weightb=1 / open_gop=0 / weightp=1 / keyint=250 / keyint_min=25 / scenecut=40 / intra_refresh=0 / rc_lookahead=10 / rc=abr / mbtree=1 / bitrate=3250 / ratetol=1.0 / qcomp=0.60 / qpmin=0 / qpmax=69 / qpstep=4 / vbv_maxrate=62500 / vbv_bufsize=78125 / nal_hrd=none / ip_ratio=1.40 / aq=1:1.00
Encoded date : UTC 2018-07-10 19:59:44
Tagged date : UTC 2018-07-11 12:57:06
Color range : Limited
Color primaries : BT.709
Transfer characteristics : BT.709
Matrix coefficients : BT.709

Audio
ID : 2
Format : AAC
Format/Info : Advanced Audio Codec
Format profile : LC
Codec ID : 40
Duration : 44 min 12 s
Bit rate mode : Variable
Bit rate : 157 kb/s
Maximum bit rate : 264 kb/s
Channel(s) : 2 channels
Channel positions : Front: L R
Sampling rate : 48.0 kHz
Frame rate : 46.875 FPS (1024 spf)
Compression mode : Lossy
Stream size : 49.7 MiB (5%)
Encoded date : UTC 2018-07-11 12:57:01
Tagged date : UTC 2018-07-11 12:57:06

Text
ID : 3
Format : Timed Text
Codec ID : tx3g
Duration : 42 min 25 s
Bit rate mode : Variable
Bit rate : 91 b/s
Stream size : 28.3 KiB (0%)
Forced : No
Encoded date : UTC 2018-07-11 12:57:06
Tagged date : UTC 2018-07-11 12:57:06


Screenshots:

Netflix - Drug Lords: Series 2 (2018)

Netflix - Drug Lords: Series 2 (2018)

Netflix - Drug Lords: Series 2 (2018)

Netflix - Drug Lords: Series 2 (2018)