die Expats (2018)

Posted By: Tavaz
SD / HDTV IMDb
die Expats (2018)

die Expats (2018)
HDTV | MKV | 720x400 | English | H264 @ 2000 kbps | AC-3 @ 384 kbps | 1 h 13 min | 1.21 GiB
Genre: Drama

DIE EXPATS explores love, loss and lust, identity and modern relationships. It is a story of four people in search of reclaiming a sense of self while navigating the knotted, overlapping space they occupy. When said space begins closing in around them, they realize the only way to get out, and not be squashed by it, is to examine their own intentions, and be willing to let go of the past, and each other. The saying goes, people come to Berlin to find what they want; but for this group, Berlin is the bearer of disillusionment. Perhaps in finding out what they don't want, Vivian, Nate, Sienna and Andreas finally uncover what it is they each truly need.

a8af2c7485d34d9fb58d9dcebc6096e9.avi (1.2 GB)



General
Complete name : ./a8af2c7485d34d9fb58d9dcebc6096e9.avi
Format : Matroska
Format version : Version 4 / Version 2
File size : 1.21 GiB
Duration : 1 h 13 min
Overall bit rate : 2 351 kb/s
Encoded date : UTC 2018-06-29 07:36:51
Writing application : mkvmerge v9.5.0 ('Quiet Fire') 64bit
Writing library : libebml v1.3.4 + libmatroska v1.4.5
FileExtension_Invalid : mkv mk3d mka mks

Video
ID : 1
Format : AVC
Format/Info : Advanced Video Codec
Format profile : High@L4.1
Format settings : CABAC / 4 Ref Frames
Format settings, CABAC : Yes
Format settings, RefFrames : 4 frames
Codec ID : V_MPEG4/ISO/AVC
Duration : 1 h 13 min
Bit rate : 2 000 kb/s
Width : 720 pixels
Height : 400 pixels
Display aspect ratio : 16:9
Frame rate mode : Constant
Frame rate : 23.976 (24000/1001) FPS
Color space : YUV
Chroma subsampling : 4:2:0
Bit depth : 8 bits
Scan type : Progressive
Bits/(Pixel*Frame) : 0.290
Stream size : 1.01 GiB (84%)
Writing library : x264 core 142 r2479 dd79a61
Encoding settings : cabac=1 / ref=1 / deblock=1:0:0 / analyse=0x3:0x113 / me=hex / subme=2 / psy=1 / psy_rd=1.00:0.00 / mixed_ref=0 / me_range=16 / chroma_me=1 / trellis=0 / 8x8dct=1 / cqm=0 / deadzone=21,11 / fast_pskip=1 / chroma_qp_offset=0 / threads=12 / lookahead_threads=3 / sliced_threads=0 / nr=0 / decimate=1 / interlaced=0 / bluray_compat=0 / constrained_intra=0 / bframes=3 / b_pyramid=2 / b_adapt=1 / b_bias=0 / direct=1 / weightb=1 / open_gop=0 / weightp=1 / keyint=240 / keyint_min=24 / scenecut=40 / intra_refresh=0 / rc_lookahead=10 / rc=abr / mbtree=1 / bitrate=2000 / ratetol=1.0 / qcomp=0.60 / qpmin=0 / qpmax=69 / qpstep=4 / vbv_maxrate=62500 / vbv_bufsize=78125 / nal_hrd=none / filler=0 / ip_ratio=1.40 / aq=1:1.00
Default : Yes
Forced : No
Color range : Limited
Color primaries : BT.709
Transfer characteristics : BT.709
Matrix coefficients : BT.709

Audio
ID : 2
Format : AC-3
Format/Info : Audio Coding 3
Format settings, Endianness : Big
Codec ID : A_AC3
Duration : 1 h 13 min
Bit rate mode : Constant
Bit rate : 384 kb/s
Channel(s) : 6 channels
Channel positions : Front: L C R, Side: L R, LFE
Sampling rate : 48.0 kHz
Frame rate : 31.250 FPS (1536 SPF)
Bit depth : 16 bits
Compression mode : Lossy
Delay relative to video : -5 ms
Stream size : 202 MiB (16%)
Title : Surround
Language : English
Service kind : Complete Main
Default : Yes
Forced : No





die Expats (2018)


die Expats (2018)


die Expats (2018)


die Expats (2018)


die Expats (2018)