Fahrenheit 9/11 (2004)

Posted By: notbanned
720p (HD) / WEBRip IMDb
Fahrenheit 9/11 (2004)

Fahrenheit 9/11 (2004)
WEBRip | 1280x720 | .MKV/AVC @ 4420 Kbps | 2 h 2 min | 3.80 GiB
Audio: English EAC3 128 kbps, 2 channels | Subs: English
Genre: Documentary | Drama | War

Following up on 'Bowling for Columbine', film-maker Michael Moore provides deep and though-provoking insights on the American security system, the level of paranoia, fear, uncertainty, false values and patriotism, which all combined together to set a stage for George W. Bush to launch a war on Iraq instead of focusing on getting the real culprit(s) behind the terrorist attacks of September 11, 2001. This documentary also focuses on how some Saudis were safely and secretly flown out of America while planes were ostensibly grounded after the attacks. Archived film footage, candid interviews with politicians, and an overall waste of public funds for a war that was initiated on false pretension to wit: a weapon of mass distraction - to take the focus away from the real enemy and get Americans glued to their TV sets to watch innocent Iraqis and Afghans getting killed. And a war that would eventually alienate the U.S.A. and it's citizens from almost every country on Earth.

General
Unique ID : 238826404040024807562078301982387892386 (0xB3AC4AD481D09A8E9BD664FF915870A2)
Complete name : fahrenheit.9.11.2004.720p.mkv
Format : Matroska
Format version : Version 4 / Version 2
File size : 3.80 GiB
Duration : 2 h 2 min
Overall bit rate mode : Variable
Overall bit rate : 4 440 kb/s

Video
ID : 1
Format : AVC
Format/Info : Advanced Video Codec
Format profile : Main@L3.1
Format settings, CABAC : Yes
Format settings, ReFrames : 3 frames
Codec ID : V_MPEG4/ISO/AVC
Duration : 2 h 2 min
Bit rate mode : Variable
Bit rate : 4 420 kb/s
Maximum bit rate : 6 630 kb/s
Width : 1 280 pixels
Height : 720 pixels
Display aspect ratio : 16:9
Frame rate mode : Constant
Frame rate : 23.976 (24000/1001) FPS
Color space : YUV
Chroma subsampling : 4:2:0
Bit depth : 8 bits
Scan type : Progressive
Bits/(Pixel*Frame) : 0.200
Stream size : 3.69 GiB (97%)
Encoding settings : cabac=1 / ref=3 / deblock=1:0:0 / analyse=0x1:0x111 / me=umh / subme=10 / psy=1 / psy_rd=1.00:0.00 / mixed_ref=1 / me_range=24 / chroma_me=1 / trellis=2 / 8x8dct=0 / cqm=0 / deadzone=21,11 / fast_pskip=1 / chroma_qp_offset=-2 / threads=8 / lookahead_threads=1 / sliced_threads=0 / nr=0 / decimate=1 / interlaced=0 / bluray_compat=0 / stitchable=1 / constrained_intra=0 / bframes=2 / b_pyramid=0 / b_adapt=2 / b_bias=0 / direct=3 / weightb=1 / open_gop=0 / weightp=2 / keyint=48 / keyint_min=25 / scenecut=0 / intra_refresh=0 / rc_lookahead=48 / rc=2pass / mbtree=1 / bitrate=4420 / ratetol=1.0 / qcomp=0.50 / qpmin=6 / qpmax=51 / qpstep=4 / cplxblur=20.0 / qblur=0.5 / vbv_maxrate=6630 / vbv_bufsize=8840 / nal_hrd=vbr / filler=0 / ip_ratio=1.40 / aq=1:1.00
Default : Yes
Forced : No

Audio
ID : 2
Format : E-AC-3
Format/Info : Enhanced Audio Coding 3
Format settings, Endianness : Big
Codec ID : A_EAC3
Duration : 2 h 2 min
Bit rate mode : Constant
Bit rate : 128 kb/s
Channel(s) : 2 channels
Channel positions : Front: L R
Sampling rate : 48.0 kHz
Frame rate : 187.500 FPS (256 spf)
Compression mode : Lossy
Stream size : 112 MiB (3%)
Title : English
Language : English
Service kind : Complete Main
Default : No
Forced : No

Text
ID : 3
Format : UTF-8
Codec ID : S_TEXT/UTF8
Codec ID/Info : UTF-8 Plain Text
Duration : 2 h 2 min
Bit rate : 114 b/s
Count of elements : 2395
Stream size : 103 KiB (0%)
Title : English [SDH]
Language : English
Default : No
Forced : No


Screenshots:

Fahrenheit 9/11 (2004)

Fahrenheit 9/11 (2004)

Fahrenheit 9/11 (2004)

Fahrenheit 9/11 (2004)