CNN - Finding Jesus: Faith Fact Forgery Season 2 (2017)

Posted By: notbanned
720p (HD) / HDTV IMDb
CNN - Finding Jesus: Faith Fact Forgery Season 2 (2017)

CNN - Finding Jesus: Faith Fact Forgery Season 2 (2017)
HDTV | 1280x720 | .MKV/AVC @ 2407 Kbps | 6x~41min | 4.88 GiB
Audio: English AC3 448 kbps, 6 channels | Subs: English
Genre: Documentary

"Finding Jesus" explores the groundbreaking science and discoveries that are revealing more about the life and times of Jesus.
Episode 1: The Pilate Stone
The archaeological investigation zeroes in on crucial artifacts that connect to Pontius Pilate – the inscription on the Stone that proves his existence, as well as the recent discovery of Herod the Great's Jerusalem Palace.

Episode 2: Raising Lazarus
Investigating the Orthodox tradition connecting Lazarus and his relics with the Mediterranean island of Cyprus; it explains the raising of a man four days dead and goes on to explore the consequences.

Episode 3: The Childhood Home of Jesus
Unpacking the archaeology of the first-century house believed to be the childhood home of Jesus; exploring the known facts about Jesus' early life and depicting his formative relationship with his mother, Mary.

Episode 4: The Tomb of King Herod
This episode explores the ‘Tomb of King Herod’, a huge news story when it was unearthed by Israeli archaeologist Ehud Netzer in 2007. But does it really belong to the King? The episode unpacks the epic story of the client king of Judea, as well as depicting how Herod intersects with the Nativity story as told by the Gospel of Matthew.

Episode 5: The Bones of St Peter
The history of St. Peter's relics, including those rediscovered under St. Peter's Basilica in the 1940s, is explored.

Episode 6: Doubting Thomas
An examination of Thomas' story outside the New Testament, in particular the Christian traditions connecting him with India. Doubting Thomas got his name after refusing to believe that Jesus had appeared to the other apostles following his crucifixtion. Only after Jesus came to him and let Thomas touch his wounds did his faith return. After the resurection of Christ, Thomas pretty much disappears from the the New Testament but some recent archeological evidence might give us a clue as to where Thomas went.

General
Unique ID : 247904818241974623995230473642854382360 (0xBA80BB353B738F0CA3DF630C7378FB18)
Complete name : finding.jesus-faith.fact.forgery.s02e01.720p.mkv
Format : Matroska
Format version : Version 4 / Version 2
File size : 858 MiB
Duration : 41 min 59 s
Overall bit rate : 2 857 kb/s

Video
ID : 1
Format : AVC
Format/Info : Advanced Video Codec
Format profile : High@L4.1
Format settings, CABAC : Yes
Format settings, ReFrames : 5 frames
Codec ID : V_MPEG4/ISO/AVC
Duration : 41 min 59 s
Bit rate : 2 407 kb/s
Width : 1 280 pixels
Height : 720 pixels
Display aspect ratio : 16:9
Frame rate mode : Constant
Frame rate : 25.000 FPS
Color space : YUV
Chroma subsampling : 4:2:0
Bit depth : 8 bits
Scan type : Progressive
Bits/(Pixel*Frame) : 0.104
Stream size : 723 MiB (84%)
Writing library : x264 core 152 r2851 ba24899
Encoding settings : cabac=1 / ref=5 / deblock=1:0:0 / analyse=0x3:0x113 / me=hex / subme=8 / psy=1 / psy_rd=1.00:0.00 / mixed_ref=1 / me_range=16 / chroma_me=1 / trellis=2 / 8x8dct=1 / cqm=0 / deadzone=21,11 / fast_pskip=1 / chroma_qp_offset=-2 / threads=12 / lookahead_threads=2 / sliced_threads=0 / nr=0 / decimate=1 / interlaced=0 / bluray_compat=0 / constrained_intra=0 / bframes=3 / b_pyramid=2 / b_adapt=1 / b_bias=0 / direct=3 / weightb=1 / open_gop=0 / weightp=2 / keyint=250 / keyint_min=25 / scenecut=40 / intra_refresh=0 / rc_lookahead=50 / rc=crf / mbtree=1 / crf=20.0 / qcomp=0.60 / qpmin=0 / qpmax=69 / qpstep=4 / ip_ratio=1.40 / aq=1:1.00
Default : Yes
Forced : No

Audio
ID : 2
Format : AC-3
Format/Info : Audio Coding 3
Format settings, Endianness : Big
Codec ID : A_AC3
Duration : 41 min 59 s
Bit rate mode : Constant
Bit rate : 448 kb/s
Channel(s) : 6 channels
Channel positions : Front: L C R, Side: L R, LFE
Sampling rate : 48.0 kHz
Frame rate : 31.250 FPS (1536 spf)
Bit depth : 16 bits
Compression mode : Lossy
Stream size : 135 MiB (16%)
Language : English
Service kind : Complete Main
Default : Yes
Forced : No

Text
ID : 3
Format : UTF-8
Codec ID : S_TEXT/UTF8
Codec ID/Info : UTF-8 Plain Text
Duration : 41 min 39 s
Bit rate : 175 b/s
Count of elements : 1074
Stream size : 53.6 KiB (0%)
Language : English
Default : No
Forced : No


Screenshots:

CNN - Finding Jesus: Faith Fact Forgery Season 2 (2017)

CNN - Finding Jesus: Faith Fact Forgery Season 2 (2017)

CNN - Finding Jesus: Faith Fact Forgery Season 2 (2017)

CNN - Finding Jesus: Faith Fact Forgery Season 2 (2017)