Subcategories

Discovery Channel - Seven Wonders of Ancient Egypt (2007)

Posted By: Tutorial
Discovery Channel - Seven Wonders of Ancient Egypt (2007)

Discovery Channel - Seven Wonders of Ancient Egypt (2007)
DVDRip | 704 x 400 | .AVI/XviD @ 1802 Kbps | 52mn 6s | English AC-3 192 Kbps, 2 channels | 745 MB
Genre: Documentary, History

At the dawn of history, the ancient Egyptians showed the world how to build the impossible… In an age before machines, when copper was the strongest metal yet discovered, great pharaohs like Khufu and Ramses II demonstrated how boundless ambition and vast quantities of human labour could transform rock and stone into some of the most incredible monuments ever created from carving out spectacular tombs in the Valley Of The Kings to the building of the iconic Great Pyramid. In this fascinating documentary special we uncover the secrets of Ancient Egypt Pharaoh, engineers and architects and bring to life great buildings and the ancient Egyptians saw them - towering over their great civilisation in the history of Africa, and perhaps the World.

also You can look my other last: History-posts

General
Complete name : Seven.Wonders.of.Ancient.Egypt.avi
Format : AVI
Format/Info : Audio Video Interleave
File size : 745 MiB
Duration : 52mn 6s
Overall bit rate : 2 000 Kbps
Writing application : VirtualDubMod 1.5.4.1 (build 2178/release)
Writing library : VirtualDubMod build 2178/release

Video
ID : 0
Format : MPEG-4 Visual
Format profile : Advanced Simple@L5
Format settings, BVOP : 1
Format settings, QPel : No
Format settings, GMC : No warppoints
Format settings, Matrix : Custom
Codec ID : XVID
Codec ID/Hint : XviD
Duration : 52mn 6s
Bit rate : 1 802 Kbps
Width : 704 pixels
Height : 400 pixels
Display aspect ratio : 16:9
Frame rate : 25.000 fps
Color space : YUV
Chroma subsampling : 4:2:0
Bit depth : 8 bits
Scan type : Progressive
Compression mode : Lossy
Bits/(Pixel*Frame) : 0.256
Stream size : 671 MiB (90%)
Writing library : XviD 1.2.1 (UTC 2008-12-04)

Audio
ID : 1
Format : AC-3
Format/Info : Audio Coding 3
Mode extension : CM (complete main)
Codec ID : 2000
Duration : 52mn 5s
Bit rate mode : Constant
Bit rate : 192 Kbps
Channel(s) : 2 channels
Channel positions : Front: L R
Sampling rate : 48.0 KHz
Bit depth : 16 bits
Compression mode : Lossy
Delay relative to video : 96ms
Stream size : 71.5 MiB (10%)
Alignment : Split accross interleaves
Interleave, duration : 96 ms (2.40 video frames)
Interleave, preload duration : 96 ms
Screenshots

Discovery Channel - Seven Wonders of Ancient Egypt (2007)

Discovery Channel - Seven Wonders of Ancient Egypt (2007)

Discovery Channel - Seven Wonders of Ancient Egypt (2007)

Discovery Channel - Seven Wonders of Ancient Egypt (2007)

Welcome to my blog - daily update!

Discovery Channel - Seven Wonders of Ancient Egypt (2007)